×

¿Problemas para descargar con Mozilla, EDGE? Deshabilita la opción "Abrir vinculos en una pestaña nueva" tal como lo muestra ésta imagen.

Milagro en La Caverna (2019) PLACEBO Full HD 1080p Latino

405 vistas

Información de Milagro en La Caverna (2019) PLACEBO Full HD 1080p Latino

Datos de la película

  • Calidad: Full 1080p
  • Audio: Se especifica abajo de la Sinopsis
  • Subtitulos: Español Latino SRT- FORZADOS SRT
  • Resolución: 1920x1080p
  • Formato: MKV
  • Codec: H.264
  • Encoder: Melkor
  • Mediainfo: Clic para Mostrar Datos Ver
  • Milagro En La Caverna (2019) PLACEBO 1080p Latino.mkv
    Format                      : Matroska
    Format version              : Version 4
    File size                   : 6.30 GiB
    Duration                    : 1 h 44 min
    Overall bit rate            : 8 649 kb/s
    Movie name                  : The Cave (2019) CinemaniaHDD.Net
    Encoded date                : UTC 2022-07-28 02:31:14
    Writing application         : mkvmerge v56.1.0 ('My Friend') 64-bit
    Writing library             : libebml v1.4.2 + libmatroska v1.6.4
    Attachments                 : CINEMANIAHD.png

    Video
    ID                          : 1
    Format                      : AVC
    Format/Info                 : Advanced Video Codec
    Format profile              : High@L4.1
    Format settings             : CABAC / 4 Ref Frames
    Format settings, CABAC      : Yes
    Format settings, Reference  : 4 frames
    Codec ID                    : V_MPEG4/ISO/AVC
    Duration                    : 1 h 44 min
    Bit rate                    : 7 738 kb/s
    Width                       : 1 920 pixels
    Height                      : 1 080 pixels
    Display aspect ratio        : 16:9
    Frame rate mode             : Constant
    Frame rate                  : 24.000 FPS
    Color space                 : YUV
    Chroma subsampling          : 4:2:0
    Bit depth                   : 8 bits
    Scan type                   : Progressive
    Bits/(Pixel*Frame)          : 0.155
    Stream size                 : 5.63 GiB (89%)
    Title                       : Full HD1080p [CinemaniaHDD]
    Writing library             : x264 core 163 r3059 b684ebe0
    Encoding settings           : cabac=1 / ref=4 / deblock=1:0:0 / analyse=0x3:0x133 / me=tesa / subme=11 / psy=1 / psy_rd=1.00:0.00 / mixed_ref=1 / me_range=24 / chroma_me=1 / trellis=2 / 8x8dct=1 / cqm=0 / deadzone=21,11 / fast_pskip=0 / chroma_qp_offset=-2 / threads=24 / lookahead_threads=6 / sliced_threads=0 / nr=0 / decimate=1 / interlaced=0 / bluray_compat=0 / constrained_intra=0 / bframes=16 / b_pyramid=2 / b_adapt=2 / b_bias=0 / direct=3 / weightb=1 / open_gop=0 / weightp=2 / keyint=240 / keyint_min=24 / scenecut=40 / intra_refresh=0 / rc_lookahead=60 / rc=crf / mbtree=1 / crf=19.0 / qcomp=0.60 / qpmin=0 / qpmax=69 / qpstep=4 / vbv_maxrate=62500 / vbv_bufsize=78125 / crf_max=0.0 / nal_hrd=none / filler=0 / ip_ratio=1.40 / aq=1:1.00
    Default                     : Yes
    Forced                      : Yes
    Color range                 : Limited
    Color primaries             : BT.709
    Transfer characteristics    : BT.709
    Matrix coefficients         : BT.709

    Audio #1
    ID                          : 2
    Format                      : AC-3
    Format/Info                 : Audio Coding 3
    Commercial name             : Dolby Digital
    Codec ID                    : A_AC3
    Duration                    : 1 h 44 min
    Bit rate mode               : Constant
    Bit rate                    : 256 kb/s
    Channel(s)                  : 2 channels
    Channel layout              : L R
    Sampling rate               : 48.0 kHz
    Frame rate                  : 31.250 FPS (1536 SPF)
    Compression mode            : Lossy
    Stream size                 : 191 MiB (3%)
    Title                       : Español Latino [CinemaniaHDD]
    Language                    : Spanish
    Service kind                : Complete Main
    Default                     : Yes
    Forced                      : Yes

    Audio #2
    ID                          : 3
    Format                      : AC-3
    Format/Info                 : Audio Coding 3
    Commercial name             : Dolby Digital
    Format settings             : Dolby Surround EX
    Codec ID                    : A_AC3
    Duration                    : 1 h 44 min
    Bit rate mode               : Constant
    Bit rate                    : 640 kb/s
    Channel(s)                  : 6 channels
    Channel layout              : L R C LFE Ls Rs
    Sampling rate               : 48.0 kHz
    Frame rate                  : 31.250 FPS (1536 SPF)
    Compression mode            : Lossy
    Stream size                 : 477 MiB (7%)
    Title                       : Thai AC3 [CinemaniaHDD]
    Language                    : Thai
    Service kind                : Complete Main
    Default                     : No
    Forced                      : No

    Text #1
    ID                          : 4
    Format                      : UTF-8
    Codec ID                    : S_TEXT/UTF8
    Codec ID/Info               : UTF-8 Plain Text
    Duration                    : 1 h 39 min
    Bit rate                    : 2 b/s
    Count of elements           : 78
    Stream size                 : 2.08 KiB (0%)
    Title                       : Forzados-SRT [CinemaniaHDD]
    Language                    : Spanish
    Default                     : Yes
    Forced                      : Yes

    Text #2
    ID                          : 5
    Format                      : UTF-8
    Codec ID                    : S_TEXT/UTF8
    Codec ID/Info               : UTF-8 Plain Text
    Duration                    : 1 h 39 min
    Bit rate                    : 56 b/s
    Count of elements           : 1194
    Stream size                 : 41.0 KiB (0%)
    Title                       : Español-SRT [CinemaniaHDD]
    Language                    : Spanish
    Default                     : No
    Forced                      : No

    Text #3
    ID                          : 6
    Format                      : PGS
    Muxing mode                 : zlib
    Codec ID                    : S_HDMV/PGS
    Codec ID/Info               : Picture based subtitle format used on BDs/HD-DVDs
    Duration                    : 1 h 40 min
    Bit rate                    : 29.6 kb/s
    Count of elements           : 2261
    Stream size                 : 21.2 MiB (0%)
    Title                       : Ingles-PGS [CinemaniaHDD]
    Language                    : English
    Default                     : No
    Forced                      : No

    Menu
    00:00:00.000                : Chapter 01
    00:05:25.583                : Chapter 02
    00:09:36.583                : Chapter 03
    00:14:36.667                : Chapter 04
    00:21:23.250                : Chapter 05
    00:25:14.625                : Chapter 06
    00:29:07.417                : Chapter 07
    00:32:44.875                : Chapter 08
    00:37:58.667                : Chapter 09
    00:42:40.792                : Chapter 10
    00:47:30.083                : Chapter 11
    00:53:30.333                : Chapter 12
    00:59:36.458                : Chapter 13
    01:06:05.708                : Chapter 14
    01:11:35.750                : Chapter 15
    01:17:15.000                : Chapter 16
    01:29:01.167                : Chapter 17
    01:38:26.792                : Chapter 18

  • Peso: 6.30 GiB

Sinopsis

Descargar Milagro en La Caverna (2019) PLACEBO Full HD 1080p Latino. Cuando un equipo de fútbol juvenil de 12 chicos, de entre 11 y 16 años, y su entrenador de 25 años quedan atrapados en las profundidades de una cueva en el norte de Tailandia, miles de voluntarios y soldados de todo el mundo se unen en una carrera contrarreloj para encontrarlos.

Español Latino AC3 2.0 Web – Thai AC3 5.1 BD

Ficha técnica

Video trailer de la película

Enlaces de descarga

Rip de Bluray

Descargar Milagro en La Caverna (2019) PLACEBO Full HD 1080p Latino




Aportes de DPeliculasHDmega la pass es:dpeliculashdmega.org Aportes de CinemaniaHD la pass es:cinemaniahdd.com

Películas relacionadas

  • The Expendables (2010) [Open Matte] WEB-DL 1080p Latino

    The Expendables (2010) [Open Matte] WEB-DL 1080p Latino

    2010
    The Expendables (2010) [Open Matte] WEB-DL 1080p Latino

    1h 43m 2010

    Un grupo de mercenarios es contratado para infiltrarse en un país sudamericano y derrocar a su despiadado...

    Director: Sylvester Stallone

    Género: Acción

    Actores: Victor Eli Hugo

  • Elvis (2022) WEB-DL 4K UHD HDR Latino

    Elvis (2022) WEB-DL 4K UHD HDR Latino

    2022
    Elvis (2022) WEB-DL 4K UHD HDR Latino

    2h 39m 2022

    Descargar Elvis (2022) WEB-DL 4K UHD HDR Latino. La película explora la vida y la música de Elvis Presley...

    Director: Baz Luhrmann

    Género: 4K HDR

    Actores: Yola

  • Elvis (2022) WEB-DL 1080p Latino

    Elvis (2022) WEB-DL 1080p Latino

    2022
    Elvis (2022) WEB-DL 1080p Latino

    2h 39m 2022

    Descargar Elvis (2022) WEB-DL 1080p Latino. La película explora la vida y la música de Elvis Presley...

    Director: Baz Luhrmann

    Género: Drama

    Actores: Yola

Milagro en La Caverna (2019) PLACEBO Full HD 1080p Latino pelicula full hd, Milagro en La Caverna (2019) PLACEBO Full HD 1080p Latino mega latino, Milagro en La Caverna (2019) PLACEBO Full HD 1080p Latino 4k latino, Milagro en La Caverna (2019) PLACEBO Full HD 1080p Latino pelicula completa, Milagro en La Caverna (2019) PLACEBO Full HD 1080p Latino descargar gratis, descargar Milagro en La Caverna (2019) PLACEBO Full HD 1080p Latino pelicula latino, Milagro en La Caverna (2019) PLACEBO Full HD 1080p Latino 1 link mega, Milagro en La Caverna (2019) PLACEBO Full HD 1080p Latino 1 link google drive, Milagro en La Caverna (2019) PLACEBO Full HD 1080p Latino hd 1080p latino.
Comentarios 0