Mike y Dave los busca novia (2016) 4K HDR Latino

834 vistas
1 estrella2 estrellas3 estrellas4 estrellas5 estrellas (Ninguna valoración todavía)
Cargando…

Información de Mike y Dave los busca novia (2016) 4K HDR Latino

Datos de la película

  • Calidad: 4K HDR
  • Audio: Español Latino AC3 5.1 BLURAY - Ingles AC3 5.1 BLURAY
  • Subtitulos: Español Latino PGS - Ingles PGS
  • Resolución: 3840x1608p
  • Formato: MKV
  • Codec: H.265
  • Encoder: Dracarys
  • Mediainfo: Clic para Mostrar Datos Ver
  • Format                                   : Matroska
    Format version                           : Version 4 / Version 2
    File size                                : 13.2 GiB
    Duration                                 : 1 h 38 min
    Overall bit rate                         : 19.2 Mb/s
    Movie name                               : CinemaniaHDD.com
    Encoded date                             : UTC 2018-03-20 05:08:59
    Writing application                      : mkvmerge v15.0.0 ('Duel with the Devil') 64-bit
    Writing library                          : libebml v1.3.5 + libmatroska v1.4.5

    Video
    ID                                       : 1
    Format                                   : HEVC
    Format/Info                              : High Efficiency Video Coding
    Format profile                           : Main 10@L5.1@High
    Codec ID                                 : V_MPEGH/ISO/HEVC
    Duration                                 : 1 h 38 min
    Bit rate                                 : 17.2 Mb/s
    Width                                    : 3 840 pixels
    Height                                   : 1 608 pixels
    Display aspect ratio                     : 2.40:1
    Frame rate mode                          : Constant
    Frame rate                               : 23.976 (24000/1001) FPS
    Color space                              : YUV
    Chroma subsampling                       : 4:2:0 (Type 2)
    Bit depth                                : 10 bits
    Bits/(Pixel*Frame)                       : 0.116
    Stream size                              : 11.8 GiB (90%)
    Title                                    : Mike y Dave los busca novia (2016) 4K HDR Latino
    Writing library                          : x265 2.6+22-ff02513b92c0:[Windows][GCC 6.3.0][64 bit] 10bit
    Encoding settings                        : cpuid=1173503 / frame-threads=4 / numa-pools=16 / wpp / no-pmode / no-pme / no-psnr / no-ssim / log-level=2 / input-csp=1 / input-res=3840x1608 / interlace=0 / total-frames=141762 / level-idc=51 / high-tier=1 / uhd-bd=0 / ref=4 / no-allow-non-conformance / repeat-headers / annexb / aud / hrd / info / hash=0 / no-temporal-layers / no-open-gop / min-keyint=1 / keyint=24 / gop-lookahead=0 / bframes=4 / b-adapt=2 / b-pyramid / bframe-bias=0 / rc-lookahead=25 / lookahead-slices=4 / scenecut=40 / radl=0 / no-intra-refresh / ctu=64 / min-cu-size=8 / rect / no-amp / max-tu-size=32 / tu-inter-depth=1 / tu-intra-depth=1 / limit-tu=0 / rdoq-level=2 / dynamic-rd=0.00 / no-ssim-rd / signhide / no-tskip / nr-intra=0 / nr-inter=0 / no-constrained-intra / no-strong-intra-smoothing / max-merge=3 / limit-refs=3 / limit-modes / me=3 / subme=3 / merange=57 / temporal-mvp / weightp / no-weightb / no-analyze-src-pics / deblock=-3:-3 / no-sao / no-sao-non-deblock / rd=4 / no-early-skip / rskip / no-fast-intra / no-tskip-fast / no-cu-lossless / no-b-intra / no-splitrd-skip / rdpenalty=0 / psy-rd=2.00 / psy-rdoq=1.00 / no-rd-refine / no-lossless / cbqpoffs=0 / crqpoffs=0 / rc=crf / crf=17.0 / qcomp=0.60 / qpstep=4 / stats-write=0 / stats-read=0 / vbv-maxrate=160000 / vbv-bufsize=160000 / vbv-init=0.9 / crf-max=0.0 / crf-min=0.0 / ipratio=1.40 / pbratio=1.30 / aq-mode=1 / aq-strength=1.00 / cutree / zone-count=0 / no-strict-cbr / qg-size=32 / no-rc-grain / qpmax=69 / qpmin=0 / no-const-vbv / sar=1 / overscan=0 / videoformat=5 / range=0 / colorprim=9 / transfer=16 / colormatrix=9 / chromaloc=1 / chromaloc-top=2 / chromaloc-bottom=2 / display-window=0 / master-display=G(13250,34500)B(7500,3000)R(34000,16000)WP(15635,16450)L(10000000,0) / max-cll=0,0 / min-luma=0 / max-luma=1023 / log2-max-poc-lsb=8 / vui-timing-info / vui-hrd-info / slices=1 / no-opt-qp-pps / no-opt-ref-list-length-pps / no-multi-pass-opt-rps / scenecut-bias=0.05 / no-opt-cu-delta-qp / no-aq-motion / hdr / hdr-opt / no-dhdr10-opt / analysis-save=(null) / analysis-load=(null) / analysis-reuse-level=5 / scale-factor=0 / refine-intra=0 / refine-inter=0 / refine-mv=0 / no-limit-sao / ctu-info=0 / no-lowpass-dct / refine-mv-type=0 / copy-pic=1
    Language                                 : English
    Default                                  : Yes
    Forced                                   : No
    Color range                              : Limited
    Color primaries                          : BT.2020
    Transfer characteristics                 : PQ
    Matrix coefficients                      : BT.2020 non-constant
    Mastering display color primaries        : R: x=0.680000 y=0.320000, G: x=0.265000 y=0.690000, B: x=0.150000 y=0.060000, White point: x=0.312700 y=0.329000
    Mastering display luminance              : min: 0.0000 cd/m2, max: 1000.0000 cd/m2

    Audio #1
    ID                                       : 2
    Format                                   : AC-3
    Format/Info                              : Audio Coding 3
    Format settings, Endianness              : Big
    Codec ID                                 : A_AC3
    Duration                                 : 1 h 38 min
    Bit rate mode                            : Constant
    Bit rate                                 : 448 kb/s
    Channel(s)                               : 6 channels
    Channel positions                        : Front: L C R, Side: L R, LFE
    Sampling rate                            : 48.0 kHz
    Frame rate                               : 31.250 FPS (1536 SPF)
    Bit depth                                : 16 bits
    Compression mode                         : Lossy
    Stream size                              : 316 MiB (2%)
    Language                                 : Spanish
    Service kind                             : Complete Main
    Default                                  : Yes
    Forced                                   : No

    Audio #2
    ID                                       : 3
    Format                                   : DTS
    Format/Info                              : Digital Theater Systems
    Mode                                     : 16
    Format settings, Endianness              : Big
    Codec ID                                 : A_DTS
    Duration                                 : 1 h 38 min
    Bit rate mode                            : Constant
    Bit rate                                 : 1 509 kb/s
    Channel(s)                               : 6 channels
    Channel positions                        : Front: L C R, Side: L R, LFE
    Sampling rate                            : 48.0 kHz
    Frame rate                               : 93.750 FPS (512 SPF)
    Bit depth                                : 24 bits
    Compression mode                         : Lossy
    Stream size                              : 1.04 GiB (8%)
    Language                                 : English
    Default                                  : No
    Forced                                   : No

    Text #1
    ID                                       : 4
    Format                                   : UTF-8
    Codec ID                                 : S_TEXT/UTF8
    Codec ID/Info                            : UTF-8 Plain Text
    Duration                                 : 1 h 35 min
    Bit rate                                 : 88 b/s
    Count of elements                        : 1918
    Stream size                              : 61.9 KiB (0%)
    Title                                    : SRT-Completos
    Language                                 : Spanish
    Default                                  : No
    Forced                                   : No

    Text #2
    ID                                       : 5
    Format                                   : PGS
    Muxing mode                              : zlib
    Codec ID                                 : S_HDMV/PGS
    Codec ID/Info                            : Picture based subtitle format used on BDs/HD-DVDs
    Duration                                 : 1 h 37 min
    Bit rate                                 : 52.6 kb/s
    Count of elements                        : 3925
    Stream size                              : 36.7 MiB (0%)
    Title                                    : PGS-Completos
    Language                                 : Spanish
    Default                                  : No
    Forced                                   : No

    Text #3
    ID                                       : 6
    Format                                   : PGS
    Muxing mode                              : zlib
    Codec ID                                 : S_HDMV/PGS
    Codec ID/Info                            : Picture based subtitle format used on BDs/HD-DVDs
    Duration                                 : 1 h 21 min
    Bit rate                                 : 42 b/s
    Count of elements                        : 5
    Stream size                              : 25.1 KiB (0%)
    Title                                    : Forced
    Language                                 : English
    Default                                  : Yes
    Forced                                   : No

    Text #4
    ID                                       : 7
    Format                                   : PGS
    Muxing mode                              : zlib
    Codec ID                                 : S_HDMV/PGS
    Codec ID/Info                            : Picture based subtitle format used on BDs/HD-DVDs
    Duration                                 : 1 h 37 min
    Bit rate                                 : 70.7 kb/s
    Count of elements                        : 5412
    Stream size                              : 49.5 MiB (0%)
    Title                                    : SDH
    Language                                 : English
    Default                                  : No
    Forced                                   : No

    Menu
    00:00:00.000                             : en:00:00:00.000
    00:03:39.511                             : en:00:03:39.511
    00:08:12.826                             : en:00:08:12.826
    00:11:26.102                             : en:00:11:26.102
    00:17:29.340                             : en:00:17:29.340
    00:22:33.477                             : en:00:22:33.477
    00:27:22.432                             : en:00:27:22.432
    00:31:29.179                             : en:00:31:29.179
    00:35:23.204                             : en:00:35:23.204
    00:38:17.212                             : en:00:38:17.212
    00:41:26.442                             : en:00:41:26.442
    00:44:25.538                             : en:00:44:25.538
    00:50:22.811                             : en:00:50:22.811
    00:54:12.833                             : en:00:54:12.833
    00:56:53.660                             : en:00:56:53.660
    01:01:16.131                             : en:01:01:16.131
    01:04:44.214                             : en:01:04:44.214
    01:08:24.058                             : en:01:08:24.058
    01:12:28.886                             : en:01:12:28.886
    01:16:33.339                             : en:01:16:33.339
    01:21:08.614                             : en:01:21:08.614
    01:25:30.542                             : en:01:25:30.542
    01:28:45.987                             : en:01:28:45.987
    01:33:51.084                             : en:01:33:51.084

  • Peso: 13.2 GiB

Sinopsis

Comedia que cuenta la verdadera historia de los hermanos Mike y Dave Stangle. Ambos tratan de encontrar una fecha para la boda de su primo poniendo un anuncio en Craigslist. Todo el trabajo de los hermanos se convierte en viral y pronto se encuentran en los programa de televisión de por las mañanas, llegan a un acuerdo con Simon & Schuster y hasta con Hollywood.

Ficha técnica

  • Titulo original: Mike and Dave Need Wedding Dates
  • Fecha de lanzamiento: 07-07-2016 (United States of America)
  • Director: Jake Szymanski
  • Género: 4K HDR, 4K UHD, Comedia

Video trailer de la película

Enlaces de descarga

Rip de Bluray

Descargar Mike y Dave los busca novia (2016) 4K HDR Latino




Aportes de DPeliculasHDmega la pass es:dpeliculashdmega.org Aportes de CinemaniaHD la pass es:cinemaniahdd.com
Guardado en : 4K HDR , 4K UHD , Comedia

Películas relacionadas

  • Escuela Nocturnas (2018) WEBDL 1080p Latino

    2018
    Escuela Nocturnas (2018) WEBDL 1080p Latino

    3.7 1h 51m 2018

    A Teddy Walker (Kevin Hart) le acaban de decir que tiene dislexia, además de otras discapacidades de...

    Director: Malcolm D. Lee

    Género: Comedia

    Actores: Yvonne Orji

  • Leprechaun Returns (2018) WEBDL 1080p Latino

    2019
    Leprechaun Returns (2018) WEBDL 1080p Latino

    0.0 1h 32m 2019

    Un grupo de hermanas de la hermandad involuntaria despiertan accidentalmente al Leprechaun asesino en...

    Director: Steven Kostanski

    Género: Comedia

    Actores: Taylor Spreitler

  • Ni en tus sueños (2010) Full 1080p Latino

    2010
    Ni en tus sueños (2010) Full 1080p Latino

    5.0 1h 44m 2010

    Descargar Ni en tus sueños (2010) Full 1080p Latino, Mega, Google Drive. Kirk (Jay Baruchel, "Tropic...

    Director: Richard L. Fox

    Género: Comedia

    Actores: Yan Xi

  • Ni en tus sueños (2010) 1080p Latino

    2010
    Ni en tus sueños (2010) 1080p Latino

    0.0 1h 44m 2010

    Descargar Ni en tus sueños (2010) 1080p Latino, Mega, Google Drive. Kirk (Jay Baruchel, "Tropic Thunder")...

    Director: Richard L. Fox

    Género: Comedia

    Actores: Yan Xi

Comentarios 0