×

¿Problemas para descargar con Mozilla, EDGE? Deshabilita la opción "Abrir vinculos en una pestaña nueva" tal como lo muestra ésta imagen.

Mike and Dave Need Wedding Dates (2016) REMUX 4K HDR Latino – CMHDD

214 vistas

Información de Mike and Dave Need Wedding Dates (2016) REMUX 4K HDR Latino – CMHDD

Datos de la película

  • Calidad: 4K HDR
  • Audio: Español Latino AC3 5.1 BLURAY - Ingles DTS-HD Master 7.1 BLURAY
  • Subtitulos: Español Latino PGS
  • Resolución: 3840x2160
  • Formato: MKV
  • Codec: HEVC
  • Encoder: Dracarys
  • Mediainfo: Clic para Mostrar Datos Ver
  • Format                      : Matroska
    Format version              : Version 4
    File size                   : 27.3 GiB
    Duration                    : 1 h 38 min
    Overall bit rate mode       : Variable
    Overall bit rate            : 39.7 Mb/s
    Movie name                  : Mike and Dave Need Wedding Dates (2016) REMUX 4K HDR Latino - CMHDD
    Encoded date                : UTC 2021-03-09 12:50:52
    Writing application         : mkvmerge v51.0.0 ('I Wish') 64-bit
    Writing library             : libebml v1.4.0 + libmatroska v1.6.2

    Video
    ID                          : 1
    Format                      : HEVC
    Format/Info                 : High Efficiency Video Coding
    Format profile              : Main 10@L5.1@High
    HDR format                  : SMPTE ST 2086, HDR10 compatible
    Codec ID                    : V_MPEGH/ISO/HEVC
    Duration                    : 1 h 37 min
    Bit rate                    : 35.0 Mb/s
    Width                       : 3 840 pixels
    Height                      : 2 160 pixels
    Display aspect ratio        : 16:9
    Frame rate mode             : Variable
    Frame rate                  : 24.236 FPS
    Original frame rate         : 23.976 (24000/1001) FPS
    Color space                 : YUV
    Chroma subsampling          : 4:2:0 (Type 2)
    Bit depth                   : 10 bits
    Bits/(Pixel*Frame)          : 0.174
    Stream size                 : 23.8 GiB (87%)
    Default                     : Yes
    Forced                      : No
    Color range                 : Limited
    Color primaries             : BT.2020
    Transfer characteristics    : PQ
    Matrix coefficients         : BT.2020 non-constant
    Mastering display color pri : Display P3
    Mastering display luminance : min: 0.0000 cd/m2, max: 1000 cd/m2

    Audio #1
    ID                          : 2
    Format                      : AC-3
    Format/Info                 : Audio Coding 3
    Commercial name             : Dolby Digital
    Codec ID                    : A_AC3
    Duration                    : 1 h 38 min
    Bit rate mode               : Constant
    Bit rate                    : 448 kb/s
    Channel(s)                  : 6 channels
    Channel layout              : L R C LFE Ls Rs
    Sampling rate               : 48.0 kHz
    Frame rate                  : 31.250 FPS (1536 SPF)
    Compression mode            : Lossy
    Stream size                 : 316 MiB (1%)
    Language                    : Spanish
    Service kind                : Complete Main
    Default                     : Yes
    Forced                      : No

    Audio #2
    ID                          : 3
    Format                      : DTS XLL
    Format/Info                 : Digital Theater Systems
    Commercial name             : DTS-HD Master Audio
    Codec ID                    : A_DTS
    Duration                    : 1 h 38 min
    Bit rate mode               : Variable
    Bit rate                    : 4 573 kb/s
    Channel(s)                  : 8 channels
    Channel layout              : C L R LFE Lb Rb Lss Rss
    Sampling rate               : 48.0 kHz
    Frame rate                  : 93.750 FPS (512 SPF)
    Bit depth                   : 24 bits
    Compression mode            : Lossless
    Delay relative to video     : 21 ms
    Stream size                 : 3.15 GiB (12%)
    Language                    : English
    Default                     : No
    Forced                      : No

    Text
    ID                          : 4
    Format                      : PGS
    Muxing mode                 : zlib
    Codec ID                    : S_HDMV/PGS
    Codec ID/Info               : Picture based subtitle format used on BDs/HD-DVDs
    Duration                    : 1 h 37 min
    Bit rate                    : 52.6 kb/s
    Count of elements           : 3925
    Stream size                 : 36.7 MiB (0%)
    Language                    : Spanish
    Default                     : No
    Forced                      : No

  • Peso: 27.3 GiB

Sinopsis

Comedia que cuenta la verdadera historia de los hermanos Mike y Dave Stangle. Ambos tratan de encontrar una fecha para la boda de su primo poniendo un anuncio en Craigslist. Todo el trabajo de los hermanos se convierte en viral y pronto se encuentran en los programa de televisión de por las mañanas, llegan a un acuerdo con Simon & Schuster y hasta con Hollywood.

Ficha técnica

  • Titulo original: Mike and Dave Need Wedding Dates
  • Fecha de lanzamiento: 07-07-2016 (United States of America)
  • Director: Jake Szymanski
  • Género: Comedia

Video trailer de la película

Enlaces de descarga

Rip de Bluray

Descargar Mike and Dave Need Wedding Dates (2016) REMUX 4K HDR Latino – CMHDD


Aportes de DPeliculasHDmega la pass es:dpeliculashdmega.org Aportes de CinemaniaHD la pass es:cinemaniahdd.com
Guardado en : Comedia

Películas relacionadas

  • Hombre de familia (2000) REMUX 1080p Latino

    Hombre de familia (2000) REMUX 1080p Latino

    2000
    Hombre de familia (2000) REMUX 1080p Latino

    2h 1m 2000

    Descargar Hombre de familia (2000) REMUX 1080p Latino. Jack Campbell es un egocéntrico broker de Wall...

    Director: Robert Schroer

    Género: Comedia

    Actores: Wass Stevens

  • Te Amo Brother (2009) REMUX 1080p Latino

    Te Amo Brother (2009) REMUX 1080p Latino

    2009
    Te Amo Brother (2009) REMUX 1080p Latino

    1h 45m 2009

    Descargar Te Amo Brother (2009) REMUX 1080p Latino. Peter Klaven (Paul Rudd) es un joven que vive muy...

    Director: Scott Robertson

    Género: Comedia

    Actores: Vicki Davis

  • Asústame (2020) HD 1080p Latino

    Asústame (2020) HD 1080p Latino

    2020
    Asústame (2020) HD 1080p Latino

    1h 44m 2020

    Descargar Asústame (2020) HD 1080p Latino. Durante un corte de energía, dos extraños cuentan historias...

    Director: Josh Ruben

    Género: Comedia

    Actores: Rebecca Drysdale

  • Asústame (2020) PLACEBO Full HD 1080p Latino

    Asústame (2020) PLACEBO Full HD 1080p Latino

    2020
    Asústame (2020) PLACEBO Full HD 1080p Latino

    1h 44m 2020

    Descargar Asústame (2020) PLACEBO Full HD 1080p Latino. Durante un corte de energía, dos extraños...

    Director: Josh Ruben

    Género: Comedia

    Actores: Rebecca Drysdale

  • Asústame (2020) REMUX 1080p Latino

    Asústame (2020) REMUX 1080p Latino

    2020
    Asústame (2020) REMUX 1080p Latino

    1h 44m 2020

    Descargar Asústame (2020) REMUX 1080p Latino. Durante un corte de energía, dos extraños cuentan historias...

    Director: Josh Ruben

    Género: Comedia

    Actores: Rebecca Drysdale

descargar Mike and Dave Need Wedding Dates (2016) REMUX 4K HDR Latino – CMHDD 4K HDR 1080p gratis, Mike and Dave Need Wedding Dates (2016) REMUX 4K HDR Latino – CMHDD 4K HDR mega 1 link, Mike and Dave Need Wedding Dates (2016) REMUX 4K HDR Latino – CMHDD 4K HDR pelicula completa, descargar Mike and Dave Need Wedding Dates (2016) REMUX 4K HDR Latino – CMHDD 4K HDR gratis en mega.

Mike and Dave Need Wedding Dates (2016) REMUX 4K HDR Latino – CMHDD pelicula full hd, Mike and Dave Need Wedding Dates (2016) REMUX 4K HDR Latino – CMHDD mega latino, Mike and Dave Need Wedding Dates (2016) REMUX 4K HDR Latino – CMHDD 4k latino, Mike and Dave Need Wedding Dates (2016) REMUX 4K HDR Latino – CMHDD pelicula completa, Mike and Dave Need Wedding Dates (2016) REMUX 4K HDR Latino – CMHDD descargar gratis, descargar Mike and Dave Need Wedding Dates (2016) REMUX 4K HDR Latino – CMHDD pelicula latino, Mike and Dave Need Wedding Dates (2016) REMUX 4K HDR Latino – CMHDD 1 link mega, Mike and Dave Need Wedding Dates (2016) REMUX 4K HDR Latino – CMHDD 1 link google drive, Mike and Dave Need Wedding Dates (2016) REMUX 4K HDR Latino – CMHDD hd 1080p latino.
Comentarios 0