×

¿Problemas para descargar con Mozilla, EDGE? Deshabilita la opción "Abrir vinculos en una pestaña nueva" tal como lo muestra ésta imagen.

Miedo a la lluvia (2021) HD 1080p Latino

336 vistas

Información de Miedo a la lluvia (2021) HD 1080p Latino

Datos de la película

  • Calidad: 1080p
  • Audio: Se especifica abajo de la Sinopsis
  • Subtitulos: Español Latino SRT- FORZADOS SRT
  • Resolución: 1920x1036p
  • Formato: MKV
  • Codec: H.264
  • Encoder: Melkor
  • Mediainfo: Clic para Mostrar Datos Ver
  • Miedo A La Lluvia (2021) HD 1080p Latino.mkv
    Format                      : Matroska
    Format version              : Version 4
    File size                   : 3.30 GiB
    Duration                    : 1 h 49 min
    Overall bit rate            : 4 339 kb/s
    Movie name                  : Fear Of Rain (2021) CinemaniaHDD.Net
    Encoded date                : UTC 2021-02-26 04:56:33
    Writing application         : mkvmerge v51.0.0 ('I Wish') 64-bit
    Writing library             : libebml v1.4.0 + libmatroska v1.6.2
    Attachments                 : CINEMANIAHD.png

    Video
    ID                          : 1
    Format                      : AVC
    Format/Info                 : Advanced Video Codec
    Format profile              : High@L4.1
    Format settings             : CABAC / 4 Ref Frames
    Format settings, CABAC      : Yes
    Format settings, Reference  : 4 frames
    Codec ID                    : V_MPEG4/ISO/AVC
    Duration                    : 1 h 49 min
    Bit rate                    : 3 500 kb/s
    Width                       : 1 920 pixels
    Height                      : 1 036 pixels
    Display aspect ratio        : 1.85:1
    Frame rate mode             : Constant
    Frame rate                  : 23.976 (24000/1001) FPS
    Color space                 : YUV
    Chroma subsampling          : 4:2:0
    Bit depth                   : 8 bits
    Scan type                   : Progressive
    Bits/(Pixel*Frame)          : 0.073
    Stream size                 : 2.62 GiB (79%)
    Title                       : HD1080p [CinemaniaHDD]
    Writing library             : x264 core 157 r2935 545de2f
    Encoding settings           : cabac=1 / ref=4 / deblock=1:-1:-1 / analyse=0x3:0x133 / me=umh / subme=9 / psy=1 / psy_rd=1.00:0.15 / mixed_ref=1 / me_range=16 / chroma_me=1 / trellis=2 / 8x8dct=1 / cqm=0 / deadzone=21,11 / fast_pskip=1 / chroma_qp_offset=-3 / threads=24 / lookahead_threads=2 / sliced_threads=0 / nr=0 / decimate=1 / interlaced=0 / bluray_compat=0 / constrained_intra=0 / bframes=3 / b_pyramid=2 / b_adapt=2 / b_bias=0 / direct=3 / weightb=1 / open_gop=0 / weightp=2 / keyint=240 / keyint_min=24 / scenecut=40 / intra_refresh=0 / rc_lookahead=60 / rc=abr / mbtree=1 / bitrate=3500 / ratetol=1.0 / qcomp=0.60 / qpmin=0 / qpmax=69 / qpstep=4 / vbv_maxrate=62500 / vbv_bufsize=78125 / nal_hrd=none / filler=0 / ip_ratio=1.40 / aq=1:1.00
    Default                     : Yes
    Forced                      : Yes
    Color range                 : Limited
    Color primaries             : BT.709
    Transfer characteristics    : BT.709
    Matrix coefficients         : BT.709

    Audio #1
    ID                          : 2
    Format                      : AC-3
    Format/Info                 : Audio Coding 3
    Commercial name             : Dolby Digital
    Codec ID                    : A_AC3
    Duration                    : 1 h 49 min
    Bit rate mode               : Constant
    Bit rate                    : 448 kb/s
    Channel(s)                  : 6 channels
    Channel layout              : L R C LFE Ls Rs
    Sampling rate               : 48.0 kHz
    Frame rate                  : 31.250 FPS (1536 SPF)
    Compression mode            : Lossy
    Delay relative to video     : -5 ms
    Stream size                 : 349 MiB (10%)
    Title                       : Español Latino [CinemaniaHDD]
    Language                    : Spanish
    Service kind                : Complete Main
    Default                     : Yes
    Forced                      : Yes

    Audio #2
    ID                          : 3
    Format                      : AC-3
    Format/Info                 : Audio Coding 3
    Commercial name             : Dolby Digital
    Codec ID                    : A_AC3
    Duration                    : 1 h 49 min
    Bit rate mode               : Constant
    Bit rate                    : 448 kb/s
    Channel(s)                  : 6 channels
    Channel layout              : L R C LFE Ls Rs
    Sampling rate               : 48.0 kHz
    Frame rate                  : 31.250 FPS (1536 SPF)
    Compression mode            : Lossy
    Delay relative to video     : -5 ms
    Stream size                 : 349 MiB (10%)
    Title                       : Ingles [CinemaniaHDD]
    Language                    : English
    Service kind                : Complete Main
    Default                     : No
    Forced                      : No

    Text #1
    ID                          : 4
    Format                      : UTF-8
    Codec ID                    : S_TEXT/UTF8
    Codec ID/Info               : UTF-8 Plain Text
    Duration                    : 1 h 32 min
    Bit rate                    : 0 b/s
    Count of elements           : 29
    Stream size                 : 543 Bytes (0%)
    Title                       : Forzados-SRT [CinemaniaHDD]
    Language                    : Spanish
    Default                     : Yes
    Forced                      : Yes

    Text #2
    ID                          : 5
    Format                      : UTF-8
    Codec ID                    : S_TEXT/UTF8
    Codec ID/Info               : UTF-8 Plain Text
    Duration                    : 1 h 40 min
    Bit rate                    : 45 b/s
    Count of elements           : 1175
    Stream size                 : 33.9 KiB (0%)
    Title                       : Español-SRT [CinemaniaHDD]
    Language                    : Spanish
    Default                     : No
    Forced                      : No

    Text #3
    ID                          : 6
    Format                      : UTF-8
    Codec ID                    : S_TEXT/UTF8
    Codec ID/Info               : UTF-8 Plain Text
    Duration                    : 1 h 40 min
    Bit rate                    : 51 b/s
    Count of elements           : 1254
    Stream size                 : 38.2 KiB (0%)
    Title                       : Ingles-SRT [CinemaniaHDD]
    Language                    : English
    Default                     : No
    Forced                      : No

    Menu
    00:00:00.000                : en:Chapter 01
    00:05:26.200                : en:Chapter 02
    00:12:52.813                : en:Chapter 03
    00:18:18.514                : en:Chapter 04
    00:25:00.540                : en:Chapter 05
    00:30:33.456                : en:Chapter 06
    00:37:22.073                : en:Chapter 07
    00:44:46.100                : en:Chapter 08
    00:53:12.731                : en:Chapter 09
    00:58:59.827                : en:Chapter 10
    01:05:07.445                : en:Chapter 11
    01:12:19.835                : en:Chapter 12
    01:18:57.441                : en:Chapter 13
    01:24:32.233                : en:Chapter 14
    01:29:01.627                : en:Chapter 15
    01:40:44.663                : en:Chapter 16

  • Peso: 3.30 GiB

Sinopsis

Descargar Miedo a la lluvia (2021) HD 1080p Latino. Una adolescente que vive con esquizofrenia comienza a sospechar que su vecino ha secuestrado a un niño. Sus padres tratan desesperadamente de ayudarla a vivir una vida normal, sin exponer sus propios secretos trágicos, y la única persona que la cree es Caleb, un niño del que ni siquiera está segura de que exista.

Español Latino AC3 5.1 WebDL – Ingles AC3 5.1 Bluray

Ficha técnica

Video trailer de la película

Enlaces de descarga

Rip de Bluray

Descargar Miedo a la lluvia (2021) HD 1080p Latino




Aportes de DPeliculasHDmega la pass es:dpeliculashdmega.org Aportes de CinemaniaHD la pass es:cinemaniahdd.com
Guardado en : Drama , HD 1080p , Suspenso , Terror

Películas relacionadas

descargar Miedo a la lluvia (2021) HD 1080p Latino 1080p 1080p gratis, Miedo a la lluvia (2021) HD 1080p Latino 1080p mega 1 link, Miedo a la lluvia (2021) HD 1080p Latino 1080p pelicula completa, descargar Miedo a la lluvia (2021) HD 1080p Latino 1080p gratis en mega.

Miedo a la lluvia (2021) HD 1080p Latino pelicula full hd, Miedo a la lluvia (2021) HD 1080p Latino mega latino, Miedo a la lluvia (2021) HD 1080p Latino 4k latino, Miedo a la lluvia (2021) HD 1080p Latino pelicula completa, Miedo a la lluvia (2021) HD 1080p Latino descargar gratis, descargar Miedo a la lluvia (2021) HD 1080p Latino pelicula latino, Miedo a la lluvia (2021) HD 1080p Latino 1 link mega, Miedo a la lluvia (2021) HD 1080p Latino 1 link google drive, Miedo a la lluvia (2021) HD 1080p Latino hd 1080p latino.
Comentarios 0