×

¿Problemas para descargar con Mozilla, EDGE? Deshabilita la opción "Abrir vinculos en una pestaña nueva" tal como lo muestra ésta imagen.

Midway: Batalla en el Pacífico (2019) REMUX 1080p Latino

1.347 vistas

Información de Midway: Batalla en el Pacífico (2019) REMUX 1080p Latino

Datos de la película

  • Calidad: Full 1080p
  • Audio: Se especifica abajo de la Sinopsis
  • Subtitulos: Español Latino PGS - Ingles PGS
  • Resolución: 1920x1080p
  • Formato: MKV
  • Codec: H.264
  • Encoder: Cinefilocool
  • Mediainfo: Clic para Mostrar Datos Ver
  • Midway (2019) REMUX 1080p Latino-CMHDD.mkv
    Format                      : Matroska
    Format version              : Version 4
    File size                   : 33.3 GiB
    Duration                    : 2 h 18 min
    Overall bit rate mode       : Variable
    Overall bit rate            : 34.4 Mb/s
    Movie name                  : CinemaniaHDD.Net
    Encoded date                : UTC 2020-02-08 03:05:30
    Writing application         : mkvmerge v42.0.0 ('Overtime') 64-bit
    Writing library             : libebml v1.3.10 + libmatroska v1.5.2
    Attachments                 : CINEMANIAHD.png

    Video
    ID                          : 1
    Format                      : AVC
    Format/Info                 : Advanced Video Codec
    Format profile              : High@L4.1
    Format settings             : CABAC / 4 Ref Frames
    Format settings, CABAC      : Yes
    Format settings, ReFrames   : 4 frames
    Codec ID                    : V_MPEG4/ISO/AVC
    Duration                    : 2 h 18 min
    Bit rate mode               : Variable
    Bit rate                    : 30.0 Mb/s
    Maximum bit rate            : 37.0 Mb/s
    Width                       : 1 920 pixels
    Height                      : 1 080 pixels
    Display aspect ratio        : 16:9
    Frame rate mode             : Constant
    Frame rate                  : 23.976 (24000/1001) FPS
    Color space                 : YUV
    Chroma subsampling          : 4:2:0
    Bit depth                   : 8 bits
    Scan type                   : Progressive
    Bits/(Pixel*Frame)          : 0.604
    Stream size                 : 29.0 GiB (87%)
    Title                       : Full HD1080p [REMUX]
    Default                     : Yes
    Forced                      : Yes

    Audio #1
    ID                          : 2
    Format                      : AC-3
    Format/Info                 : Audio Coding 3
    Commercial name             : Dolby Digital
    Codec ID                    : A_AC3
    Duration                    : 2 h 18 min
    Bit rate mode               : Constant
    Bit rate                    : 640 kb/s
    Channel(s)                  : 6 channels
    Channel layout              : L R C LFE Ls Rs
    Sampling rate               : 48.0 kHz
    Frame rate                  : 31.250 FPS (1536 SPF)
    Bit depth                   : 16 bits
    Compression mode            : Lossy
    Stream size                 : 634 MiB (2%)
    Title                       : AC3_5.1_Bluray_Esp
    Language                    : Spanish
    Service kind                : Complete Main
    Default                     : Yes
    Forced                      : Yes

    Audio #2
    ID                          : 3
    Format                      : MLP FBA 16-ch
    Format/Info                 : Meridian Lossless Packing FBA with 16-channel presentation
    Commercial name             : Dolby TrueHD with Dolby Atmos
    Codec ID                    : A_TRUEHD
    Duration                    : 2 h 18 min
    Bit rate mode               : Variable
    Bit rate                    : 3 190 kb/s
    Maximum bit rate            : 3 894 kb/s
    Channel(s)                  : 8 channels
    Channel layout              : L R C LFE Ls Rs Lb Rb
    Sampling rate               : 48.0 kHz
    Frame rate                  : 1 200.000 FPS (40 SPF)
    Compression mode            : Lossless
    Stream size                 : 3.08 GiB (9%)
    Title                       : THD_7.1_Bluray_Eng
    Language                    : English
    Default                     : No
    Forced                      : No
    Number of dynamic objects   : 11
    Bed channel count           : 1 channel
    Bed channel configuration   : LFE

    Audio #3
    ID                          : 4
    Format                      : AC-3
    Format/Info                 : Audio Coding 3
    Commercial name             : Dolby Digital
    Codec ID                    : A_AC3
    Duration                    : 2 h 18 min
    Bit rate mode               : Constant
    Bit rate                    : 448 kb/s
    Channel(s)                  : 6 channels
    Channel layout              : L R C LFE Ls Rs
    Sampling rate               : 48.0 kHz
    Frame rate                  : 31.250 FPS (1536 SPF)
    Bit depth                   : 16 bits
    Compression mode            : Lossy
    Stream size                 : 444 MiB (1%)
    Title                       : AC3_5.1_Bluray_Eng
    Language                    : English
    Service kind                : Complete Main
    Default                     : No
    Forced                      : No

    Text #1
    ID                          : 5
    Format                      : PGS
    Muxing mode                 : zlib
    Codec ID                    : S_HDMV/PGS
    Codec ID/Info               : Picture based subtitle format used on BDs/HD-DVDs
    Duration                    : 2 h 4 min
    Bit rate                    : 5 252 b/s
    Count of elements           : 388
    Stream size                 : 4.69 MiB (0%)
    Title                       : Sub_Forzados [PGS]
    Language                    : Spanish
    Default                     : Yes
    Forced                      : Yes

    Text #2
    ID                          : 6
    Format                      : PGS
    Muxing mode                 : zlib
    Codec ID                    : S_HDMV/PGS
    Codec ID/Info               : Picture based subtitle format used on BDs/HD-DVDs
    Duration                    : 2 h 8 min
    Bit rate                    : 36.6 kb/s
    Count of elements           : 2939
    Stream size                 : 33.7 MiB (0%)
    Title                       : Sub_Esp [PGS]
    Language                    : Spanish
    Default                     : No
    Forced                      : No

    Text #3
    ID                          : 7
    Format                      : PGS
    Muxing mode                 : zlib
    Codec ID                    : S_HDMV/PGS
    Codec ID/Info               : Picture based subtitle format used on BDs/HD-DVDs
    Duration                    : 2 h 8 min
    Bit rate                    : 30.2 kb/s
    Count of elements           : 2470
    Stream size                 : 27.7 MiB (0%)
    Title                       : Sub_Eng [PGS]
    Language                    : English
    Default                     : No
    Forced                      : No

    Text #4
    ID                          : 8
    Format                      : UTF-8
    Codec ID                    : S_TEXT/UTF8
    Codec ID/Info               : UTF-8 Plain Text
    Duration                    : 2 h 4 min
    Bit rate                    : 10 b/s
    Count of elements           : 223
    Stream size                 : 9.42 KiB (0%)
    Title                       : Sub_Forzados
    Language                    : Spanish
    Default                     : No
    Forced                      : No

    Text #5
    ID                          : 9
    Format                      : UTF-8
    Codec ID                    : S_TEXT/UTF8
    Codec ID/Info               : UTF-8 Plain Text
    Duration                    : 2 h 9 min
    Bit rate                    : 60 b/s
    Count of elements           : 1696
    Stream size                 : 57.7 KiB (0%)
    Title                       : Sub_Esp
    Language                    : Spanish
    Default                     : No
    Forced                      : No

    Menu
    00:00:00.000                : en:Chapter 01
    00:09:36.659                : en:Chapter 02
    00:17:37.681                : en:Chapter 03
    00:25:13.512                : en:Chapter 04
    00:30:33.623                : en:Chapter 05
    00:39:34.288                : en:Chapter 06
    00:46:13.020                : en:Chapter 07
    00:53:48.850                : en:Chapter 08
    01:00:32.962                : en:Chapter 09
    01:09:01.971                : en:Chapter 10
    01:16:11.024                : en:Chapter 11
    01:24:48.041                : en:Chapter 12
    01:31:49.545                : en:Chapter 13
    01:42:08.872                : en:Chapter 14
    01:51:17.879                : en:Chapter 15
    02:02:21.083                : en:Chapter 16

  • Peso: 33.3 GiB

Sinopsis

Descargar Midway: Batalla en el Pacífico (2019) REMUX 1080p Latino. 1942, Segunda Guerra Mundial. Después del devastador ataque sorpresa que destruyó Pearl Harbor, la Armada Imperial Japonesa se prepara para un nuevo ataque. Pero el Almirante Nimitz y Dick Best, el mejor piloto de la armada estadounidense, preparan un contraataque al imponente ejército japonés. Dick encabezará un ataque masivo que hará que Japón se dé cuenta de su error. Una decisión que cambió el curso de la historia para siempre. Mientras estos dos titánicos enemigos emprenden una letal batalla para cambiar el rumbo de la guerra, todas las miradas se vuelcan hacia la remota isla de Midway, donde una serie de impactantes ataques aéreos y marítimos pondrán a prueba la potencia y la fortaleza de ambas naciones.

Audio Español Latino AC3 5.1 Bluray – Ingles TrueHD 7.1 + AC3 5.1 Bluray

Ficha técnica

Video trailer de la película

Enlaces de descarga

Rip de Bluray

Descargar Midway: Batalla en el Pacífico (2019) REMUX 1080p Latino




Aportes de DPeliculasHDmega la pass es:dpeliculashdmega.org Aportes de CinemaniaHD la pass es:cinemaniahdd.com
Guardado en : Acción , Bélica , Drama , Historia , Remux

Películas relacionadas

descargar Midway: Batalla en el Pacífico (2019) REMUX 1080p Latino Full 1080p 1080p gratis, Midway: Batalla en el Pacífico (2019) REMUX 1080p Latino Full 1080p mega 1 link, Midway: Batalla en el Pacífico (2019) REMUX 1080p Latino Full 1080p pelicula completa, descargar Midway: Batalla en el Pacífico (2019) REMUX 1080p Latino Full 1080p gratis en mega.

Midway: Batalla en el Pacífico (2019) REMUX 1080p Latino pelicula full hd, Midway: Batalla en el Pacífico (2019) REMUX 1080p Latino mega latino, Midway: Batalla en el Pacífico (2019) REMUX 1080p Latino 4k latino, Midway: Batalla en el Pacífico (2019) REMUX 1080p Latino pelicula completa, Midway: Batalla en el Pacífico (2019) REMUX 1080p Latino descargar gratis, descargar Midway: Batalla en el Pacífico (2019) REMUX 1080p Latino pelicula latino, Midway: Batalla en el Pacífico (2019) REMUX 1080p Latino 1 link mega, Midway: Batalla en el Pacífico (2019) REMUX 1080p Latino 1 link google drive, Midway: Batalla en el Pacífico (2019) REMUX 1080p Latino hd 1080p latino.
Comentarios 0