×

¿Problemas para descargar con Mozilla, EDGE? Deshabilita la opción "Abrir vinculos en una pestaña nueva" tal como lo muestra ésta imagen.

Midway (2019) 1080p Latino

2.372 vistas

Información de Midway (2019) 1080p Latino

Datos de la película

  • Calidad: 1080p
  • Audio: Español Latino AC3 5.1 DVD - Ingles AC3 5.1 BLURAY
  • Subtitulos: Español Latino SRT- FORZADOS SRT
  • Resolución: 1920x804
  • Formato: MKV
  • Codec: H.264
  • Encoder: cinemaniahdd
  • Mediainfo: Clic para Mostrar Datos Ver
  • Midway (2019) 1080p Latino.mkv
    Format                      : Matroska
    Format version              : Version 4
    File size                   : 4.74 GiB
    Duration                    : 2 h 18 min
    Overall bit rate            : 4 902 kb/s
    Movie name                  : Midway (2019) - CinemaniaHDD.Net
    Encoded date                : UTC 2020-02-06 16:04:40
    Writing application         : mkvmerge v42.0.0 ('Overtime') 64-bit
    Writing library             : libebml v1.3.10 + libmatroska v1.5.2

    Video
    ID                          : 1
    Format                      : AVC
    Format/Info                 : Advanced Video Codec
    Format profile              : High@L4.1
    Format settings             : CABAC / 4 Ref Frames
    Format settings, CABAC      : Yes
    Format settings, ReFrames   : 4 frames
    Codec ID                    : V_MPEG4/ISO/AVC
    Duration                    : 2 h 18 min
    Bit rate                    : 4 035 kb/s
    Width                       : 1 920 pixels
    Height                      : 804 pixels
    Display aspect ratio        : 2.40:1
    Frame rate mode             : Constant
    Frame rate                  : 23.976 (24000/1001) FPS
    Color space                 : YUV
    Chroma subsampling          : 4:2:0
    Bit depth                   : 8 bits
    Scan type                   : Progressive
    Bits/(Pixel*Frame)          : 0.109
    Stream size                 : 3.87 GiB (82%)
    Title                       : CinemaniaHDD
    Writing library             : x264 core 142 r2479 dd79a61
    Encoding settings           : cabac=1 / ref=1 / deblock=1:0:0 / analyse=0x3:0x3 / me=dia / subme=1 / psy=1 / psy_rd=1.00:0.00 / mixed_ref=0 / me_range=16 / chroma_me=1 / trellis=0 / 8x8dct=1 / cqm=0 / deadzone=21,11 / fast_pskip=1 / chroma_qp_offset=0 / threads=12 / lookahead_threads=2 / sliced_threads=0 / nr=0 / decimate=1 / interlaced=0 / bluray_compat=0 / constrained_intra=0 / bframes=3 / b_pyramid=2 / b_adapt=1 / b_bias=0 / direct=1 / weightb=1 / open_gop=0 / weightp=1 / keyint=240 / keyint_min=24 / scenecut=40 / intra_refresh=0 / rc_lookahead=0 / rc=abr / mbtree=0 / bitrate=4035 / ratetol=1.0 / qcomp=0.60 / qpmin=0 / qpmax=69 / qpstep=4 / vbv_maxrate=62500 / vbv_bufsize=78125 / nal_hrd=none / filler=0 / ip_ratio=1.40 / pb_ratio=1.30 / aq=1:1.00
    Default                     : Yes
    Forced                      : No
    Color range                 : Limited
    Color primaries             : BT.709
    Transfer characteristics    : BT.709
    Matrix coefficients         : BT.709

    Audio #1
    ID                          : 2
    Format                      : AC-3
    Format/Info                 : Audio Coding 3
    Commercial name             : Dolby Digital
    Codec ID                    : A_AC3
    Duration                    : 2 h 18 min
    Bit rate mode               : Constant
    Bit rate                    : 448 kb/s
    Channel(s)                  : 6 channels
    Channel layout              : L R C LFE Ls Rs
    Sampling rate               : 48.0 kHz
    Frame rate                  : 31.250 FPS (1536 SPF)
    Bit depth                   : 16 bits
    Compression mode            : Lossy
    Delay relative to video     : -83 ms
    Stream size                 : 444 MiB (9%)
    Title                       : Español latino [CinemaniaHDD]
    Language                    : Spanish
    Service kind                : Complete Main
    Default                     : Yes
    Forced                      : No

    Audio #2
    ID                          : 3
    Format                      : AC-3
    Format/Info                 : Audio Coding 3
    Commercial name             : Dolby Digital
    Codec ID                    : A_AC3
    Duration                    : 2 h 18 min
    Bit rate mode               : Constant
    Bit rate                    : 448 kb/s
    Channel(s)                  : 6 channels
    Channel layout              : L R C LFE Ls Rs
    Sampling rate               : 48.0 kHz
    Frame rate                  : 31.250 FPS (1536 SPF)
    Bit depth                   : 16 bits
    Compression mode            : Lossy
    Delay relative to video     : -83 ms
    Stream size                 : 444 MiB (9%)
    Title                       : Inglés [CinemaniaHDD]
    Language                    : English
    Service kind                : Complete Main
    Default                     : No
    Forced                      : No

    Text #1
    ID                          : 4
    Format                      : UTF-8
    Codec ID                    : S_TEXT/UTF8
    Codec ID/Info               : UTF-8 Plain Text
    Duration                    : 2 h 8 min
    Bit rate                    : 3 b/s
    Count of elements           : 74
    Stream size                 : 3.24 KiB (0%)
    Title                       : Forzados [CinemaniaHDD]
    Language                    : Spanish
    Default                     : Yes
    Forced                      : Yes

    Text #2
    ID                          : 5
    Format                      : UTF-8
    Codec ID                    : S_TEXT/UTF8
    Codec ID/Info               : UTF-8 Plain Text
    Duration                    : 2 h 8 min
    Bit rate                    : 61 b/s
    Count of elements           : 1695
    Stream size                 : 57.7 KiB (0%)
    Title                       : Español latino [CinemaniaHDD]
    Language                    : Spanish
    Default                     : No
    Forced                      : No

    Menu
    00:00:00.000                : :Chapter 1
    00:09:36.742                : :Chapter 2
    00:17:37.806                : :Chapter 3
    00:25:13.595                : :Chapter 4
    00:30:33.706                : :Chapter 5
    00:39:34.413                : :Chapter 6
    00:46:13.103                : :Chapter 7
    00:53:48.975                : :Chapter 8
    01:00:33.087                : :Chapter 9
    01:09:02.054                : :Chapter 10
    01:16:11.150                : :Chapter 11
    01:24:48.124                : :Chapter 12
    01:31:49.670                : :Chapter 13
    01:42:08.997                : :Chapter 14
    01:51:17.963                : :Chapter 15
    02:02:21.208                : :Chapter 16

     

  • Peso: 4.74 GiB

Sinopsis

1942, Segunda Guerra Mundial. Después del devastador ataque sorpresa que destruyó Pearl Harbor, la Armada Imperial Japonesa se prepara para un nuevo ataque. Pero el Almirante Nimitz (Woody Harrelson) y Dick Best (Ed Skrein), el mejor piloto de la armada estadounidense, preparan un contraataque al imponente ejército japonés. Dick encabezará un ataque masivo que hará que Japón se dé cuenta de su error. Una decisión que cambió el curso de la historia para siempre. Mientras estos dos titánicos enemigos emprenden una letal batalla para cambiar el rumbo de la guerra, todas las miradas se vuelcan hacia la remota isla de Midway, donde una serie de impactantes ataques aéreos y marítimos pondrán a prueba la potencia y la fortaleza de ambas naciones.

Ficha técnica

Video trailer de la película

Enlaces de descarga

Rip de Bluray

Descargar Midway (2019) 1080p Latino




Aportes de DPeliculasHDmega la pass es:dpeliculashdmega.org Aportes de CinemaniaHD la pass es:cinemaniahdd.com
Guardado en : Acción , Bélica , Drama , HD 1080p , Historia

Películas relacionadas

descargar Midway (2019) 1080p Latino 1080p 1080p gratis, Midway (2019) 1080p Latino 1080p mega 1 link, Midway (2019) 1080p Latino 1080p pelicula completa, descargar Midway (2019) 1080p Latino 1080p gratis en mega.

Midway (2019) 1080p Latino pelicula full hd, Midway (2019) 1080p Latino mega latino, Midway (2019) 1080p Latino 4k latino, Midway (2019) 1080p Latino pelicula completa, Midway (2019) 1080p Latino descargar gratis, descargar Midway (2019) 1080p Latino pelicula latino, Midway (2019) 1080p Latino 1 link mega, Midway (2019) 1080p Latino 1 link google drive, Midway (2019) 1080p Latino hd 1080p latino.
Comentarios 0