×

¿Problemas para descargar con Mozilla, EDGE? Deshabilita la opción "Abrir vinculos en una pestaña nueva" tal como lo muestra ésta imagen.

Midsommar: el terror no espera la noche (2019) Full HD 1080p Latino

2.411 vistas

Información de Midsommar: el terror no espera la noche (2019) Full HD 1080p Latino

Datos de la película

  • Calidad: Full 1080p
  • Audio: Español Latino AC3 5.1 iTUNES - Ingles DTS 5.1 BLURAY
  • Subtitulos: Español Latino PGS - Ingles PGS
  • Resolución: 1920x1080p
  • Formato: MKV
  • Codec: H.264
  • Encoder: CinemaniaHD
  • Mediainfo: Clic para Mostrar Datos Ver
  • Midsommar (2019) Full HD 1080p Latino-CMHDD.mkv
    Format                      : Matroska
    Format version              : Version 4
    File size                   : 7.22 GiB
    Duration                    : 2 h 27 min
    Overall bit rate            : 7 031 kb/s
    Movie name                  : CinemaniaHDD.Net
    Encoded date                : UTC 2019-12-20 02:40:29
    Writing application         : mkvmerge v38.0.0 ('The Silent Type') 64-bit
    Writing library             : libebml v1.3.9 + libmatroska v1.5.2
    Attachments                 : CINEMANIAHD.png

    Video
    ID                          : 1
    Format                      : AVC
    Format/Info                 : Advanced Video Codec
    Format profile              : High@L4.1
    Format settings             : CABAC / 4 Ref Frames
    Format settings, CABAC      : Yes
    Format settings, ReFrames   : 4 frames
    Codec ID                    : V_MPEG4/ISO/AVC
    Duration                    : 2 h 27 min
    Bit rate                    : 5 115 kb/s
    Width                       : 1 920 pixels
    Height                      : 1 080 pixels
    Display aspect ratio        : 16:9
    Frame rate mode             : Constant
    Frame rate                  : 23.976 (24000/1001) FPS
    Color space                 : YUV
    Chroma subsampling          : 4:2:0
    Bit depth                   : 8 bits
    Scan type                   : Progressive
    Bits/(Pixel*Frame)          : 0.103
    Stream size                 : 5.25 GiB (73%)
    Title                       : Full HD1080p [Bluray]
    Writing library             : x264 core 157 r2935 545de2f
    Encoding settings           : cabac=1 / ref=4 / deblock=1:0:0 / analyse=0x3:0x133 / me=tesa / subme=11 / psy=1 / psy_rd=1.00:0.00 / mixed_ref=1 / me_range=24 / chroma_me=1 / trellis=2 / 8x8dct=1 / cqm=0 / deadzone=21,11 / fast_pskip=0 / chroma_qp_offset=-2 / threads=34 / lookahead_threads=8 / sliced_threads=0 / nr=0 / decimate=1 / interlaced=0 / bluray_compat=0 / constrained_intra=0 / bframes=16 / b_pyramid=2 / b_adapt=2 / b_bias=0 / direct=3 / weightb=1 / open_gop=0 / weightp=2 / keyint=240 / keyint_min=24 / scenecut=40 / intra_refresh=0 / rc_lookahead=60 / rc=crf / mbtree=1 / crf=20.0 / qcomp=0.60 / qpmin=0 / qpmax=69 / qpstep=4 / vbv_maxrate=62500 / vbv_bufsize=78125 / crf_max=0.0 / nal_hrd=none / filler=0 / ip_ratio=1.40 / aq=1:1.00
    Default                     : Yes
    Forced                      : Yes
    Color range                 : Limited
    Color primaries             : BT.709
    Transfer characteristics    : BT.709
    Matrix coefficients         : BT.709

    Audio #1
    ID                          : 2
    Format                      : AC-3
    Format/Info                 : Audio Coding 3
    Commercial name             : Dolby Digital
    Codec ID                    : A_AC3
    Duration                    : 2 h 27 min
    Bit rate mode               : Constant
    Bit rate                    : 384 kb/s
    Channel(s)                  : 6 channels
    Channel layout              : L R C LFE Ls Rs
    Sampling rate               : 48.0 kHz
    Frame rate                  : 31.250 FPS (1536 SPF)
    Bit depth                   : 16 bits
    Compression mode            : Lossy
    Stream size                 : 404 MiB (5%)
    Title                       : AC3_5.1_Web_Esp
    Language                    : Spanish
    Service kind                : Complete Main
    Default                     : Yes
    Forced                      : Yes

    Audio #2
    ID                          : 3
    Format                      : DTS
    Format/Info                 : Digital Theater Systems
    Codec ID                    : A_DTS
    Duration                    : 2 h 27 min
    Bit rate mode               : Constant
    Bit rate                    : 1 509 kb/s
    Channel(s)                  : 6 channels
    Channel layout              : C L R Ls Rs LFE
    Sampling rate               : 48.0 kHz
    Frame rate                  : 93.750 FPS (512 SPF)
    Bit depth                   : 24 bits
    Compression mode            : Lossy
    Stream size                 : 1.55 GiB (21%)
    Title                       : DTS_5.1_Bluray_Eng
    Language                    : English
    Default                     : No
    Forced                      : No

    Text #1
    ID                          : 4
    Format                      : PGS
    Muxing mode                 : zlib
    Codec ID                    : S_HDMV/PGS
    Codec ID/Info               : Picture based subtitle format used on BDs/HD-DVDs
    Duration                    : 2 h 25 min
    Bit rate                    : 20.7 kb/s
    Count of elements           : 2204
    Stream size                 : 21.5 MiB (0%)
    Title                       : Sub_Esp [PGS]
    Language                    : Spanish
    Default                     : No
    Forced                      : No

    Text #2
    ID                          : 5
    Format                      : PGS
    Muxing mode                 : zlib
    Codec ID                    : S_HDMV/PGS
    Codec ID/Info               : Picture based subtitle format used on BDs/HD-DVDs
    Duration                    : 2 h 20 min
    Bit rate                    : 25.5 kb/s
    Count of elements           : 3402
    Stream size                 : 25.7 MiB (0%)
    Title                       : Sub_Eng [PGS]
    Language                    : English
    Default                     : No
    Forced                      : No

    Text #3
    ID                          : 6
    Format                      : UTF-8
    Codec ID                    : S_TEXT/UTF8
    Codec ID/Info               : UTF-8 Plain Text
    Duration                    : 7 min 53 s
    Bit rate                    : 6 b/s
    Count of elements           : 8
    Stream size                 : 359 Bytes (0%)
    Title                       : Sub_Forzados
    Language                    : Spanish
    Default                     : Yes
    Forced                      : Yes

    Text #4
    ID                          : 7
    Format                      : UTF-8
    Codec ID                    : S_TEXT/UTF8
    Codec ID/Info               : UTF-8 Plain Text
    Duration                    : 2 h 22 min
    Bit rate                    : 34 b/s
    Count of elements           : 1121
    Stream size                 : 35.8 KiB (0%)
    Title                       : Sub_Esp
    Language                    : Spanish
    Default                     : No
    Forced                      : No

    Menu
    00:00:00.000                : :Chapter 1
    00:08:50.864                : :Chapter 2
    00:14:52.975                : :Chapter 3
    00:22:57.167                : :Chapter 4
    00:28:49.353                : :Chapter 5
    00:34:10.757                : :Chapter 6
    00:40:17.373                : :Chapter 7
    00:46:00.591                : :Chapter 8
    00:52:15.215                : :Chapter 9
    00:57:58.809                : :Chapter 10
    01:04:08.511                : :Chapter 11
    01:09:57.777                : :Chapter 12
    01:16:17.198                : :Chapter 13
    01:23:38.889                : :Chapter 14
    01:30:25.754                : :Chapter 15
    01:36:13.309                : :Chapter 16
    01:41:33.296                : :Chapter 17
    01:46:39.643                : :Chapter 18
    01:52:48.512                : :Chapter 19
    01:58:48.246                : :Chapter 20
    02:04:36.928                : :Chapter 21
    02:12:14.343                : :Chapter 22
    02:18:45.108                : :Chapter 23
    02:22:30.667                : :Chapter 24

  • Peso: 7.22 GiB

Sinopsis

Descargar Midsommar: el terror no espera la noche (2019) Full HD 1080p Latino. Una pareja estadounidense que no está pasando por su mejor momento acude con unos amigos a un festival de verano que se celebra cada noventa años en una aldea remota de Suecia. Lo que comienza como unas vacaciones de ensueño en un lugar en el que el sol no se pone nunca, poco a poco se convierte en una oscura pesadilla cuando los misteriosos aldeanos les invitan a participar en sus perturbadoras actividades festivas.

NOTAVideo limpio sin Subtitulos Incrustados ?

Ficha técnica

Video trailer de la película

Enlaces de descarga

Rip de Bluray

Descargar Midsommar: el terror no espera la noche (2019) Full HD 1080p Latino




Aportes de DPeliculasHDmega la pass es:dpeliculashdmega.org Aportes de CinemaniaHD la pass es:cinemaniahdd.com

Películas relacionadas

descargar Midsommar: el terror no espera la noche (2019) Full HD 1080p Latino Full 1080p 1080p gratis, Midsommar: el terror no espera la noche (2019) Full HD 1080p Latino Full 1080p mega 1 link, Midsommar: el terror no espera la noche (2019) Full HD 1080p Latino Full 1080p pelicula completa, descargar Midsommar: el terror no espera la noche (2019) Full HD 1080p Latino Full 1080p gratis en mega.

Midsommar: el terror no espera la noche (2019) Full HD 1080p Latino pelicula full hd, Midsommar: el terror no espera la noche (2019) Full HD 1080p Latino mega latino, Midsommar: el terror no espera la noche (2019) Full HD 1080p Latino 4k latino, Midsommar: el terror no espera la noche (2019) Full HD 1080p Latino pelicula completa, Midsommar: el terror no espera la noche (2019) Full HD 1080p Latino descargar gratis, descargar Midsommar: el terror no espera la noche (2019) Full HD 1080p Latino pelicula latino, Midsommar: el terror no espera la noche (2019) Full HD 1080p Latino 1 link mega, Midsommar: el terror no espera la noche (2019) Full HD 1080p Latino 1 link google drive, Midsommar: el terror no espera la noche (2019) Full HD 1080p Latino hd 1080p latino.
Comentarios 0