×

¿Problemas para descargar con Mozilla, EDGE? Deshabilita la opción "Abrir vinculos en una pestaña nueva" tal como lo muestra ésta imagen.

Midnight Sun (2018) REMUX 1080p Latino – CMHDD

210 vistas

Información de Midnight Sun (2018) REMUX 1080p Latino – CMHDD

Datos de la película

  • Calidad: Full 1080p
  • Audio: Español Latino AC3 5.1 DVD - Ingles DTS 5.1 BLURAY
  • Subtitulos: Español Latino PGS
  • Resolución: 1920x1080p
  • Formato: MKV
  • Codec: H.264
  • Encoder: Dracarys
  • Mediainfo: Clic para Mostrar Datos Ver
  • Format                      : Matroska
    Format version              : Version 4
    File size                   : 24.6 GiB
    Duration                    : 1 h 31 min
    Overall bit rate mode       : Variable
    Overall bit rate            : 38.3 Mb/s
    Movie name                  : Midnight Sun (2018) REMUX 1080p Latino - CMHDD
    Encoded date                : UTC 2021-07-04 03:14:34
    Writing application         : mkvmerge v56.1.0 ('My Friend') 64-bit
    Writing library             : libebml v1.4.2 + libmatroska v1.6.4
    Cover                       : Yes
    Attachments                 : cover.jpg

    Video
    ID                          : 1
    ID in the original source m : 4113 (0x1011)
    Format                      : AVC
    Format/Info                 : Advanced Video Codec
    Format profile              : High@L4.1
    Format settings             : CABAC / 4 Ref Frames
    Format settings, CABAC      : Yes
    Format settings, Reference  : 4 frames
    Codec ID                    : V_MPEG4/ISO/AVC
    Duration                    : 1 h 31 min
    Bit rate mode               : Variable
    Bit rate                    : 34.4 Mb/s
    Maximum bit rate            : 37.0 Mb/s
    Width                       : 1 920 pixels
    Height                      : 1 080 pixels
    Display aspect ratio        : 16:9
    Frame rate mode             : Constant
    Frame rate                  : 23.976 (24000/1001) FPS
    Color space                 : YUV
    Chroma subsampling          : 4:2:0
    Bit depth                   : 8 bits
    Scan type                   : Progressive
    Bits/(Pixel*Frame)          : 0.692
    Stream size                 : 22.1 GiB (90%)
    Default                     : Yes
    Forced                      : No
    Original source medium      : Blu-ray

    Audio #1
    ID                          : 2
    Format                      : AC-3
    Format/Info                 : Audio Coding 3
    Commercial name             : Dolby Digital
    Codec ID                    : A_AC3
    Duration                    : 1 h 31 min
    Bit rate mode               : Constant
    Bit rate                    : 384 kb/s
    Channel(s)                  : 6 channels
    Channel layout              : L R C LFE Ls Rs
    Sampling rate               : 48.0 kHz
    Frame rate                  : 31.250 FPS (1536 SPF)
    Compression mode            : Lossy
    Stream size                 : 252 MiB (1%)
    Language                    : Spanish
    Service kind                : Complete Main
    Default                     : Yes
    Forced                      : No

    Audio #2
    ID                          : 3
    ID in the original source m : 4352 (0x1100)
    Format                      : DTS XLL
    Format/Info                 : Digital Theater Systems
    Commercial name             : DTS-HD Master Audio
    Codec ID                    : A_DTS
    Duration                    : 1 h 31 min
    Bit rate mode               : Variable
    Bit rate                    : 3 546 kb/s
    Channel(s)                  : 6 channels
    Channel layout              : C L R Ls Rs LFE
    Sampling rate               : 48.0 kHz
    Frame rate                  : 93.750 FPS (512 SPF)
    Bit depth                   : 24 bits
    Compression mode            : Lossless
    Stream size                 : 2.28 GiB (9%)
    Language                    : English
    Default                     : No
    Forced                      : No
    Original source medium      : Blu-ray

    Text
    ID                          : 4
    ID in the original source m : 4609 (0x1201)
    Format                      : PGS
    Muxing mode                 : zlib
    Codec ID                    : S_HDMV/PGS
    Codec ID/Info               : Picture based subtitle format used on BDs/HD-DVDs
    Duration                    : 1 h 30 min
    Bit rate                    : 33.0 kb/s
    Count of elements           : 2375
    Stream size                 : 21.5 MiB (0%)
    Language                    : Spanish
    Default                     : Yes
    Forced                      : No
    Original source medium      : Blu-ray

    Menu
    00:00:00.000                : Chapter 01
    00:04:00.990                : Chapter 02
    00:09:32.113                : Chapter 03
    00:14:23.988                : Chapter 04
    00:20:52.584                : Chapter 05
    00:24:16.204                : Chapter 06
    00:30:14.187                : Chapter 07
    00:34:13.760                : Chapter 08
    00:37:46.806                : Chapter 09
    00:42:48.357                : Chapter 10
    00:47:28.095                : Chapter 11
    00:53:23.450                : Chapter 12
    00:57:34.242                : Chapter 13
    01:01:31.813                : Chapter 14
    01:04:15.393                : Chapter 15
    01:07:27.209                : Chapter 16
    01:10:06.076                : Chapter 17
    01:15:36.865                : Chapter 18
    01:19:39.775                : Chapter 19
    01:26:21.176                : Chapter 20

  • Peso: 24.6 GiB

Sinopsis

Basada en la película japonesa del 2006 del mismo nombre se centra en Katie, una joven de 17 años de edad, encerrada desde la infancia en su casa durante el día por una rara enfermedad que hace que incluso la mínima cantidad de luz solar sea mortal. El destino interviene cuando conoce a Charlie y se embarcan en un romance de verano.

Ficha técnica

Video trailer de la película

Enlaces de descarga

Rip de Bluray

Descargar Midnight Sun (2018) REMUX 1080p Latino – CMHDD


Aportes de DPeliculasHDmega la pass es:dpeliculashdmega.org Aportes de CinemaniaHD la pass es:cinemaniahdd.com
Guardado en : Drama , Romance

Películas relacionadas

  • El discurso del Rey (2010) 1080p Latino

    El discurso del Rey (2010) 1080p Latino

    2010
    El discurso del Rey (2010) 1080p Latino

    1h 58m 2010

    Descargar El discurso del Rey (2010) 1080p Latino. El duque de York se convirtió en rey de Gran Bretaña...

    Director: Tom Hooper

    Género: Drama

    Actores: Tony Earnshaw

  • El discurso del Rey (2010) Full HD 1080p Latino

    El discurso del Rey (2010) Full HD 1080p Latino

    2010
    El discurso del Rey (2010) Full HD 1080p Latino

    1h 58m 2010

    Descargar El discurso del Rey (2010) Full HD 1080p Latino. El duque de York se convirtió en rey de Gran...

    Director: Tom Hooper

    Género: Drama

    Actores: Tony Earnshaw

  • El discurso del Rey (2010) REMUX 1080p Latino

    El discurso del Rey (2010) REMUX 1080p Latino

    2010
    El discurso del Rey (2010) REMUX 1080p Latino

    1h 58m 2010

    Descargar El discurso del Rey (2010) REMUX 1080p Latino. El duque de York se convirtió en rey de Gran...

    Director: Tom Hooper

    Género: Drama

    Actores: Tony Earnshaw

  • 8 Mile (2002) REMUX 4K HDR Latino – CMHDD

    8 Mile (2002) REMUX 4K HDR Latino – CMHDD

    2002
    8 Mile (2002) REMUX 4K HDR Latino – CMHDD

    1h 50m 2002

    Detroit, 1995. La promesa de potencia industrial se ha transformado en un hervidero de conflictos económicos...

    Director: Michael J. Moore

    Género: Drama

    Actores: Xzibit

descargar Midnight Sun (2018) REMUX 1080p Latino – CMHDD Full 1080p 1080p gratis, Midnight Sun (2018) REMUX 1080p Latino – CMHDD Full 1080p mega 1 link, Midnight Sun (2018) REMUX 1080p Latino – CMHDD Full 1080p pelicula completa, descargar Midnight Sun (2018) REMUX 1080p Latino – CMHDD Full 1080p gratis en mega.

Midnight Sun (2018) REMUX 1080p Latino – CMHDD pelicula full hd, Midnight Sun (2018) REMUX 1080p Latino – CMHDD mega latino, Midnight Sun (2018) REMUX 1080p Latino – CMHDD 4k latino, Midnight Sun (2018) REMUX 1080p Latino – CMHDD pelicula completa, Midnight Sun (2018) REMUX 1080p Latino – CMHDD descargar gratis, descargar Midnight Sun (2018) REMUX 1080p Latino – CMHDD pelicula latino, Midnight Sun (2018) REMUX 1080p Latino – CMHDD 1 link mega, Midnight Sun (2018) REMUX 1080p Latino – CMHDD 1 link google drive, Midnight Sun (2018) REMUX 1080p Latino – CMHDD hd 1080p latino.
Comentarios 0