×

¿Problemas para descargar con Mozilla, EDGE? Deshabilita la opción "Abrir vinculos en una pestaña nueva" tal como lo muestra ésta imagen.

Midnight in Paris (2011) REMUX 1080p Latino – CMHDD

309 vistas

Información de Midnight in Paris (2011) REMUX 1080p Latino – CMHDD

Datos de la película

  • Calidad: Full 1080p
  • Audio: Se especifica abajo de la Sinopsis
  • Subtitulos: Español Latino SRT
  • Resolución: 1920x1080p
  • Formato: MKV
  • Codec: H.264
  • Encoder: Dracarys
  • Mediainfo: Clic para Mostrar Datos Ver
  • Format                      : Matroska
    Format version              : Version 4
    File size                   : 18.3 GiB
    Duration                    : 1 h 34 min
    Overall bit rate mode       : Variable
    Overall bit rate            : 27.8 Mb/s
    Movie name                  : Midnight in Paris (2011) REMUX 1080p Latino - CMHDD
    Encoded date                : UTC 2020-11-09 03:19:30
    Writing application         : mkvmerge v51.0.0 ('I Wish') 64-bit
    Writing library             : libebml v1.4.0 + libmatroska v1.6.2

    Video
    ID                          : 1
    Format                      : AVC
    Format/Info                 : Advanced Video Codec
    Format profile              : High@L4.1
    Format settings             : CABAC / 2 Ref Frames
    Format settings, CABAC      : Yes
    Format settings, Reference  : 2 frames
    Format settings, GOP        : M=1, N=10
    Codec ID                    : V_MPEG4/ISO/AVC
    Duration                    : 1 h 34 min
    Bit rate mode               : Variable
    Bit rate                    : 24.9 Mb/s
    Width                       : 1 920 pixels
    Height                      : 1 080 pixels
    Display aspect ratio        : 16:9
    Frame rate mode             : Constant
    Frame rate                  : 23.976 (24000/1001) FPS
    Color space                 : YUV
    Chroma subsampling          : 4:2:0
    Bit depth                   : 8 bits
    Scan type                   : Progressive
    Bits/(Pixel*Frame)          : 0.501
    Stream size                 : 16.4 GiB (90%)
    Default                     : Yes
    Forced                      : No

    Audio #1
    ID                          : 2
    Format                      : E-AC-3
    Format/Info                 : Enhanced AC-3
    Commercial name             : Dolby Digital Plus
    Codec ID                    : A_EAC3
    Duration                    : 1 h 33 min
    Bit rate mode               : Constant
    Bit rate                    : 224 kb/s
    Channel(s)                  : 2 channels
    Channel layout              : L R
    Sampling rate               : 48.0 kHz
    Frame rate                  : 31.250 FPS (1536 SPF)
    Compression mode            : Lossy
    Delay relative to video     : 14 s 0 ms
    Stream size                 : 151 MiB (1%)
    Language                    : Spanish
    Service kind                : Complete Main
    Default                     : Yes
    Forced                      : No

    Audio #2
    ID                          : 3
    Format                      : AC-3
    Format/Info                 : Audio Coding 3
    Commercial name             : Dolby Digital
    Codec ID                    : A_AC3
    Duration                    : 1 h 33 min
    Bit rate mode               : Constant
    Bit rate                    : 256 kb/s
    Channel(s)                  : 2 channels
    Channel layout              : L R
    Sampling rate               : 48.0 kHz
    Frame rate                  : 31.250 FPS (1536 SPF)
    Compression mode            : Lossy
    Delay relative to video     : 14 s 0 ms
    Stream size                 : 172 MiB (1%)
    Language                    : Spanish
    Service kind                : Complete Main
    Default                     : No
    Forced                      : No

    Audio #3
    ID                          : 4
    Format                      : DTS XLL
    Format/Info                 : Digital Theater Systems
    Commercial name             : DTS-HD Master Audio
    Codec ID                    : A_DTS
    Duration                    : 1 h 34 min
    Bit rate mode               : Variable
    Bit rate                    : 2 405 kb/s
    Channel(s)                  : 3 channels
    Channel layout              : C L R
    Sampling rate               : 48.0 kHz
    Frame rate                  : 93.750 FPS (512 SPF)
    Bit depth                   : 24 bits
    Compression mode            : Lossless
    Stream size                 : 1.58 GiB (9%)
    Language                    : English
    Default                     : No
    Forced                      : No

    Text
    ID                          : 5
    Format                      : UTF-8
    Codec ID                    : S_TEXT/UTF8
    Codec ID/Info               : UTF-8 Plain Text
    Duration                    : 1 h 33 min
    Bit rate                    : 81 b/s
    Count of elements           : 1610
    Stream size                 : 56.1 KiB (0%)
    Language                    : Spanish
    Default                     : No
    Forced                      : No

    Menu
    00:00:00.000                : en:00:00:00.000
    00:05:08.892                : en:00:05:08.892
    00:12:13.358                : en:00:12:13.358
    00:16:06.048                : en:00:16:06.048
    00:23:51.263                : en:00:23:51.263
    00:29:10.999                : en:00:29:10.999
    00:35:35.175                : en:00:35:35.175
    00:42:52.904                : en:00:42:52.904
    00:47:40.649                : en:00:47:40.649
    00:53:42.177                : en:00:53:42.177
    00:58:22.290                : en:00:58:22.290
    01:04:03.339                : en:01:04:03.339
    01:10:53.749                : en:01:10:53.749
    01:17:58.799                : en:01:17:58.799
    01:24:14.549                : en:01:24:14.549
    01:28:29.888                : en:01:28:29.888

  • Peso: 18.3 GiB

Sinopsis

Un escritor norteamericano algo bohemio llega con su prometida Inez y los padres de ésta a París. Mientras vaga por las calles soñando con los felices años 20, cae bajo una especie de hechizo que hace que, a medianoche, en algún lugar del barrio Latino, se vea transportado a otro universo donde va a conocer a personajes que jamás imaginaría iba a conocer…

 

Latino: E-AC3+AC3 2.0 [AMAZON]  –  Ingles: DTS-HD MA 5.1 [BluRay]

Ficha técnica

Video trailer de la película

Enlaces de descarga

Rip de Bluray

Descargar Midnight in Paris (2011) REMUX 1080p Latino – CMHDD


Aportes de DPeliculasHDmega la pass es:dpeliculashdmega.org Aportes de CinemaniaHD la pass es:cinemaniahdd.com
Guardado en : Comedia , Fantasía , Romance

Películas relacionadas

descargar Midnight in Paris (2011) REMUX 1080p Latino – CMHDD Full 1080p 1080p gratis, Midnight in Paris (2011) REMUX 1080p Latino – CMHDD Full 1080p mega 1 link, Midnight in Paris (2011) REMUX 1080p Latino – CMHDD Full 1080p pelicula completa, descargar Midnight in Paris (2011) REMUX 1080p Latino – CMHDD Full 1080p gratis en mega.

Midnight in Paris (2011) REMUX 1080p Latino – CMHDD pelicula full hd, Midnight in Paris (2011) REMUX 1080p Latino – CMHDD mega latino, Midnight in Paris (2011) REMUX 1080p Latino – CMHDD 4k latino, Midnight in Paris (2011) REMUX 1080p Latino – CMHDD pelicula completa, Midnight in Paris (2011) REMUX 1080p Latino – CMHDD descargar gratis, descargar Midnight in Paris (2011) REMUX 1080p Latino – CMHDD pelicula latino, Midnight in Paris (2011) REMUX 1080p Latino – CMHDD 1 link mega, Midnight in Paris (2011) REMUX 1080p Latino – CMHDD 1 link google drive, Midnight in Paris (2011) REMUX 1080p Latino – CMHDD hd 1080p latino.
Comentarios 0