Mid90s (2018) HD 1080p Subtitulado

961 vistas
1 estrella2 estrellas3 estrellas4 estrellas5 estrellas (1 votos, promedio: 5,00 de 5)
Cargando…

Información de Mid90s (2018) HD 1080p Subtitulado

Datos de la película

  • Calidad: 1080p
  • Audio: Ingles AC3 5.1 BLURAY
  • Subtitulos: Español Latino SRT - Ingles SRT
  • Resolución: 1440x1080p
  • Formato: MKV
  • Codec: H.264
  • Encoder: CinefiloCool
  • Mediainfo: Clic para Mostrar Datos Ver
  • Mid90s (2018) HD 1080p Subtitulado.mkv
    Format                      : Matroska
    Format version              : Version 4
    File size                   : 2.30 GiB
    Duration                    : 1 h 25 min
    Overall bit rate            : 3 860 kb/s
    Movie name                  : CinemaniaHDD.Net
    Encoded date                : UTC 2019-01-03 18:44:06
    Writing application         : mkvmerge v29.0.0 ('Like It Or Not') 64-bit
    Writing library             : libebml v1.3.6 + libmatroska v1.4.9

    Video
    ID                          : 1
    Format                      : AVC
    Format/Info                 : Advanced Video Codec
    Format profile              : [email protected]
    Format settings             : CABAC / 5 Ref Frames
    Format settings, CABAC      : Yes
    Format settings, ReFrames   : 5 frames
    Codec ID                    : V_MPEG4/ISO/AVC
    Duration                    : 1 h 25 min
    Bit rate                    : 3 500 kb/s
    Width                       : 1 440 pixels
    Height                      : 1 080 pixels
    Display aspect ratio        : 4:3
    Frame rate mode             : Constant
    Frame rate                  : 23.976 (24000/1001) FPS
    Color space                 : YUV
    Chroma subsampling          : 4:2:0
    Bit depth                   : 8 bits
    Scan type                   : Progressive
    Bits/(Pixel*Frame)          : 0.094
    Stream size                 : 2.03 GiB (88%)
    Title                       : HD1080P [Bluray]
    Writing library             : x264 core 155 r2901 7d0ff22
    Encoding settings           : cabac=1 / ref=5 / deblock=1:0:0 / analyse=0x3:0x113 / me=hex / subme=8 / psy=1 / psy_rd=1.00:0.00 / mixed_ref=1 / me_range=16 / chroma_me=1 / trellis=2 / 8x8dct=1 / cqm=0 / deadzone=21,11 / fast_pskip=1 / chroma_qp_offset=-2 / threads=34 / lookahead_threads=5 / sliced_threads=0 / nr=0 / decimate=1 / interlaced=0 / bluray_compat=0 / constrained_intra=0 / bframes=3 / b_pyramid=2 / b_adapt=1 / b_bias=0 / direct=3 / weightb=1 / open_gop=0 / weightp=2 / keyint=240 / keyint_min=24 / scenecut=40 / intra_refresh=0 / rc_lookahead=50 / rc=abr / mbtree=1 / bitrate=3500 / ratetol=1.0 / qcomp=0.60 / qpmin=0 / qpmax=69 / qpstep=4 / vbv_maxrate=62500 / vbv_bufsize=78125 / nal_hrd=none / filler=0 / ip_ratio=1.40 / aq=1:1.00
    Default                     : Yes
    Forced                      : No
    Color range                 : Limited
    Color primaries             : BT.709
    Transfer characteristics    : BT.709
    Matrix coefficients         : BT.709

    Audio
    ID                          : 2
    Format                      : AC-3
    Format/Info                 : Audio Coding 3
    Commercial name             : Dolby Digital
    Codec ID                    : A_AC3
    Duration                    : 1 h 25 min
    Bit rate mode               : Constant
    Bit rate                    : 448 kb/s
    Channel(s)                  : 6 channels
    Channel layout              : L R C LFE Ls Rs
    Sampling rate               : 48.0 kHz
    Frame rate                  : 31.250 FPS (1536 SPF)
    Bit depth                   : 16 bits
    Compression mode            : Lossy
    Stream size                 : 274 MiB (12%)
    Title                       : AC3_5.1_Bluray_Eng
    Language                    : English
    Service kind                : Complete Main
    Default                     : Yes
    Forced                      : No

    Text #1
    ID                          : 3
    Format                      : UTF-8
    Codec ID                    : S_TEXT/UTF8
    Codec ID/Info               : UTF-8 Plain Text
    Duration                    : 1 h 17 min
    Bit rate                    : 43 b/s
    Count of elements           : 825
    Stream size                 : 24.6 KiB (0%)
    Title                       : Sub_Esp
    Language                    : Spanish
    Default                     : Yes
    Forced                      : Yes

    Text #2
    ID                          : 4
    Format                      : UTF-8
    Codec ID                    : S_TEXT/UTF8
    Codec ID/Info               : UTF-8 Plain Text
    Duration                    : 1 h 18 min
    Bit rate                    : 45 b/s
    Count of elements           : 844
    Stream size                 : 26.1 KiB (0%)
    Title                       : Sub_Eng
    Language                    : English
    Default                     : No
    Forced                      : No

    Menu
    00:00:00.000                : :00:00:00.000
    00:04:41.907                : :00:04:41.907
    00:11:28.313                : :00:11:28.313
    00:15:34.642                : :00:15:34.642
    00:20:57.047                : :00:20:57.047
    00:25:51.050                : :00:25:51.049
    00:32:09.302                : :00:32:09.302
    00:37:42.260                : :00:37:42.260
    00:43:32.360                : :00:43:32.360
    00:46:53.227                : :00:46:53.227
    00:53:34.336                : :00:53:34.253
    00:56:51.450                : :00:56:51.450
    01:03:43.945                : :01:03:43.945
    01:09:02.180                : :01:09:02.180
    01:14:04.440                : :01:14:04.440
    01:17:40.698                : :01:17:40.698

  • Peso: 2.30 GiB

Sinopsis

Descargar Mid90s (2018) HD 1080p Subtitulado, Mega, Google Drive, Torrent. Stevie, un chico de 13 años que vive en el Los Ángeles de los años 90, pasa el verano lidiando con los problemas de su vida doméstica y divirtiéndose con su nuevo grupo de amigos, que ha conocido en una tienda de skate.

Ficha técnica

  • Titulo original: Mid90s
  • Fecha de lanzamiento: 19-10-2018 (United States of America)
  • Director: Jonah Hill
  • Género: Comedia, Drama, HD 1080p
  • Puntuación: 5.0 1 votos
  • Duración:
    1h 24m

Video trailer de la película

Enlaces de descarga

Rip de Bluray

Descargar Mid90s (2018) HD 1080p Subtitulado




Aportes de DPeliculasHDmega la pass es:dpeliculashdmega.org Aportes de CinemaniaHD la pass es:cinemaniahdd.com
Guardado en : Comedia , Drama , HD 1080p

Películas relacionadas

  • Arizona (2018) 1080p Latino

    2018
    Arizona (2018) 1080p Latino

    5.0 1h 25m 2018

    Ambientada en medio de la crisis de la vivienda de 2009, esta oscura y cómica historia sigue a Cassie...

    Director: Mara Herdmann

    Género: Comedia

    Actores: Vivian Nesbitt

  • Si La Colonia Hablara (2018) Remux 1080p Subtitulado

    2018
    Si La Colonia Hablara (2018) Remux 1080p Subtitulado

    5.0 1h 57m 2018

    Descargar Si La Colonia Hablara (2018) Remux 1080p Subtitulado. Basada en la novela de James Baldwin,...

    Director: Barry Jenkins

    Género: Crimen

    Actores: Teyonah Parris

  • Si La Colonia Hablara (2018) Full 1080p Subtitulado

    2018
    Si La Colonia Hablara (2018) Full 1080p Subtitulado

    5.0 1h 57m 2018

    Descargar Si La Colonia Hablara (2018) Full 1080p Subtitulado, Mega, Google Drive. Basada en la novela...

    Director: Barry Jenkins

    Género: Crimen

    Actores: Teyonah Parris

  • Si La Colonia Hablara (2018) 1080p Subtitulado

    2018
    Si La Colonia Hablara (2018) 1080p Subtitulado

    0.0 1h 57m 2018

    Descargar Si La Colonia Hablara (2018) 1080p Subtitulado, Mega, Google Drive. Basada en la novela de...

    Director: Barry Jenkins

    Género: Crimen

    Actores: Teyonah Parris

Comentarios 0