Mi última palabra (2017) 1080p Latino

760 vistas
1 estrella2 estrellas3 estrellas4 estrellas5 estrellas (Ninguna valoración todavía)
Cargando…

Información de Mi última palabra (2017) 1080p Latino

Datos de la película

  • Calidad: 1080p
  • Audio: Español Latino AC3 2.0 DVD - Ingles AC3 5.1 BLURAY
  • Subtitulos: Español Latino SRT
  • Resolución: 1920X800p
  • Formato: MKV
  • Codec: H.264
  • Encoder: CinemaniaHD
  • Mediainfo: Clic para Mostrar Datos Ver
  • Format                                   : Matroska
    Format version                           : Version 4 / Version 2
    File size                                : 3.02 GiB
    Duration                                 : 1 h 48 min
    Overall bit rate                         : 3 991 kb/s
    Movie name                               : CinemaniaHDD.com
    Encoded date                             : UTC 2018-01-04 07:12:26 / UTC 2018-01-04T04:57:31Z
    Writing application                      : mkvmerge v15.0.0 ('Duel with the Devil') 64-bit
    Writing library                          : libebml v1.3.5 + libmatroska v1.4.5 / Lavf57.7.2

    Video
    ID                                       : 1
    Format                                   : AVC
    Format/Info                              : Advanced Video Codec
    Format profile                           : High@L4.1
    Format settings                          : CABAC / 4 Ref Frames
    Format settings, CABAC                   : Yes
    Format settings, RefFrames               : 4 frames
    Codec ID                                 : V_MPEG4/ISO/AVC
    Duration                                 : 1 h 48 min
    Bit rate                                 : 3 500 kb/s
    Width                                    : 1 920 pixels
    Height                                   : 800 pixels
    Display aspect ratio                     : 2.40:1
    Frame rate mode                          : Constant
    Frame rate                               : 23.976 (24000/1001) FPS
    Color space                              : YUV
    Chroma subsampling                       : 4:2:0
    Bit depth                                : 8 bits
    Scan type                                : Progressive
    Bits/(Pixel*Frame)                       : 0.095
    Stream size                              : 2.52 GiB (84%)
    Title                                    : Mi última palabra (2017) 1080p Latino
    Writing library                          : x264 core 148 r2708 86b7198
    Encoding settings                        : cabac=1 / ref=3 / deblock=1:0:0 / analyse=0x3:0x113 / me=hex / subme=7 / psy=1 / psy_rd=1.00:0.00 / mixed_ref=1 / me_range=16 / chroma_me=1 / trellis=1 / 8x8dct=1 / cqm=0 / deadzone=21,11 / fast_pskip=1 / chroma_qp_offset=-2 / threads=25 / lookahead_threads=4 / sliced_threads=0 / nr=0 / decimate=1 / interlaced=0 / bluray_compat=0 / constrained_intra=0 / bframes=3 / b_pyramid=2 / b_adapt=1 / b_bias=0 / direct=1 / weightb=1 / open_gop=0 / weightp=2 / keyint=240 / keyint_min=24 / scenecut=40 / intra_refresh=0 / rc_lookahead=40 / rc=abr / mbtree=1 / bitrate=3500 / ratetol=1.0 / qcomp=0.60 / qpmin=0 / qpmax=69 / qpstep=4 / vbv_maxrate=62500 / vbv_bufsize=78125 / nal_hrd=none / filler=0 / ip_ratio=1.40 / aq=1:1.00
    Language                                 : English
    Default                                  : Yes
    Forced                                   : No
    Color range                              : Limited
    Color primaries                          : BT.709
    Transfer characteristics                 : BT.709
    Matrix coefficients                      : BT.709
    Statistics Tags Issue                    : mkvmerge v15.0.0 ('Duel with the Devil') 64-bit 2018-01-04 07:12:26 / mkvmerge v15.0.0 ('Duel with the Devil') 64-bit 2018-01-04 07:12:26 / UTC 2018-01-04T04:57:31Z
    FromStats_BitRate                        : 3413517
    FromStats_Duration                       : 01:48:09.442000000
    FromStats_FrameCount                     : 155591
    FromStats_StreamSize                     : 2768977664

    Audio #1
    ID                                       : 2
    Format                                   : AC-3
    Format/Info                              : Audio Coding 3
    Format settings, Endianness              : Big
    Codec ID                                 : A_AC3
    Duration                                 : 1 h 48 min
    Bit rate mode                            : Constant
    Bit rate                                 : 192 kb/s
    Channel(s)                               : 2 channels
    Channel positions                        : Front: L R
    Sampling rate                            : 48.0 kHz
    Frame rate                               : 31.250 FPS (1536 SPF)
    Bit depth                                : 16 bits
    Compression mode                         : Lossy
    Delay relative to video                  : -5 ms
    Stream size                              : 149 MiB (5%)
    Language                                 : Spanish
    Service kind                             : Complete Main
    Default                                  : Yes
    Forced                                   : No
    Statistics Tags Issue                    : mkvmerge v15.0.0 ('Duel with the Devil') 64-bit 2018-01-04 07:12:26 / mkvmerge v15.0.0 ('Duel with the Devil') 64-bit 2018-01-04 07:12:26 / UTC 2018-01-04T04:57:31Z
    FromStats_BitRate                        : 192000
    FromStats_Duration                       : 01:48:00.992000000
    FromStats_FrameCount                     : 202531
    FromStats_StreamSize                     : 155543808

    Audio #2
    ID                                       : 3
    Format                                   : AC-3
    Format/Info                              : Audio Coding 3
    Format settings, Endianness              : Big
    Codec ID                                 : A_AC3
    Duration                                 : 1 h 48 min
    Bit rate mode                            : Constant
    Bit rate                                 : 384 kb/s
    Channel(s)                               : 6 channels
    Channel positions                        : Front: L C R, Side: L R, LFE
    Sampling rate                            : 48.0 kHz
    Frame rate                               : 31.250 FPS (1536 SPF)
    Bit depth                                : 16 bits
    Compression mode                         : Lossy
    Delay relative to video                  : -5 ms
    Stream size                              : 297 MiB (10%)
    Language                                 : English
    Service kind                             : Complete Main
    Default                                  : No
    Forced                                   : No
    Statistics Tags Issue                    : mkvmerge v15.0.0 ('Duel with the Devil') 64-bit 2018-01-04 07:12:26 / mkvmerge v15.0.0 ('Duel with the Devil') 64-bit 2018-01-04 07:12:26 / UTC 2018-01-04T04:57:31Z
    FromStats_BitRate                        : 384000
    FromStats_Duration                       : 01:48:09.472000000
    FromStats_FrameCount                     : 202796
    FromStats_StreamSize                     : 311494656

    Text
    ID                                       : 4
    Format                                   : UTF-8
    Codec ID                                 : S_TEXT/UTF8
    Codec ID/Info                            : UTF-8 Plain Text
    Language                                 : Spanish
    Default                                  : Yes
    Forced                                   : No
    Statistics Tags Issue                    : mkvmerge v15.0.0 ('Duel with the Devil') 64-bit 2018-01-04 07:12:26 / mkvmerge v15.0.0 ('Duel with the Devil') 64-bit 2018-01-04 07:12:26 / UTC 2018-01-04T04:57:31Z
    FromStats_BitRate                        : 67
    FromStats_Duration                       : 01:41:06.234000000
    FromStats_FrameCount                     : 1500
    FromStats_StreamSize                     : 51343

    Menu
    00:00:00.000                             : :00:00:00.000
    00:05:57.482                             : :00:05:57.482
    00:09:39.871                             : :00:09:39.871
    00:15:10.576                             : :00:15:10.576
    00:21:02.178                             : :00:21:02.178
    00:26:59.076                             : :00:26:59.076
    00:30:14.354                             : :00:30:14.354
    00:34:31.570                             : :00:34:31.569
    00:41:44.585                             : :00:41:44.585
    00:47:26.927                             : :00:47:26.927
    00:53:39.383                             : :00:53:39.383
    01:00:08.563                             : :01:00:08.563
    01:03:41.026                             : :01:03:41.026
    01:08:34.569                             : :01:08:34.569
    01:13:50.176                             : :01:13:50.176
    01:19:29.890                             : :01:19:29.890
    01:26:15.504                             : :01:26:15.504
    01:31:34.364                             : :01:31:34.364
    01:37:34.307                             : :01:37:34.307
    01:43:45.302                             : :01:43:45.219

     

  • Peso: 3.02 GiB

Sinopsis

Harriett fue en su día una exitosa empresaria. Siempre ha controlado su vida. Por eso decide que su obituario también quiere controlarlo. Para ello contrata a una escritora para que narre la historia de su vida. Pero el resultado no será el esperado…

Ficha técnica

  • Titulo original: The Last Word
  • Fecha de lanzamiento: 03-03-2017 (United States of America)
  • Director: Mark Pellington
  • Género: Comedia, Drama
  • Puntuación: 0.0 0 votos
  • Duración:
    1h 48m

Video trailer de la película

Enlaces de descarga

Rip de Bluray

Descargar Mi última palabra (2017) 1080p Latino




Aportes de DPeliculasHDmega la pass es:dpeliculashdmega.org Aportes de CinemaniaHD la pass es:cinemaniahdd.com
Guardado en : Comedia , Drama

Películas relacionadas

  • La balada de Buster Scruggs (2018) NF 1080p Latino

    2018
    La balada de Buster Scruggs (2018) NF 1080p Latino

    0.0 2h 12m 2018

    Los siempre singulares Joel y Ethan Cohen escriben y dirigen esta antología de seis historias del Salvaje...

    Director: Joel Coen

    Género: Comedia

    Actores: Zoe Kazan

  • Cambio de princesa (2018) NF 1080p Latino

    2018
    Cambio de princesa (2018) NF 1080p Latino

    0.0 1h 41m 2018

    Una repostera de Chicago y una futura princesa descubren que parecen gemelas, así que idean un plan...

    Director: Mike Rohl

    Género: Comedia

    Actores: Vanessa Hudgens

  • La pequeña brujita (2018) AMZN 1080p Latino

    2018
    La pequeña brujita (2018) AMZN 1080p Latino

    5.0 1h 43m 2018

    Descargar La pequeña brujita (2018) AMZN 1080p Latino, Mega, Google Drive. La pequeña bruja sólo tiene...

    Director: Mike Schaerer

    Género: Comedia

    Actores: Verena Bosshard

  • Puzzle (2018) Web-DL 1080p Latino

    2018
    Puzzle (2018) Web-DL 1080p Latino

    0.0 1h 43m 2018

    Descargar Puzzle (2018) Web-DL 1080p Latino; Mega, Google Drive. Una mujer acude a Atlantic City para...

    Director: Marc Turtletaub

    Género: Drama

    Actores: Myrna Cabello

Comentarios 2
  • snj - 04 enero, 2018

    hola
    el audio es el final?