×

¿Problemas para descargar con Mozilla, EDGE? Deshabilita la opción "Abrir vinculos en una pestaña nueva" tal como lo muestra ésta imagen.

Mi soledad tiene alas (2023) NF WEB-DL 1080p Español

70 vistas

Información de Mi soledad tiene alas (2023) NF WEB-DL 1080p Español

Datos de la película

  • Calidad: WEBDL
  • Audio: Español España AC3 5.1 Netflix
  • Subtitulos: Español Latino SRT- FORZADOS SRT
  • Resolución: 1920x1080p
  • Formato: MKV
  • Codec: H.264
  • Encoder: Melkor
  • Mediainfo: Clic para Mostrar Datos Ver
  • Caged Wings (2024) NF WEB 1080p Cast.mkv
    Format                      : Matroska
    Format version              : Version 4
    File size                   : 5.73 GiB
    Duration                    : 1 h 42 min
    Overall bit rate mode       : Variable
    Overall bit rate            : 8 004 kb/s
    Movie name                  : Caged Wings (2024)  CinemaniaHDD.Net
    Encoded date                : UTC 2024-01-22 04:55:48
    Writing application         : mkvmerge v59.0.0 ('Shining Star') 64-bit
    Writing library             : libebml v1.4.2 + libmatroska v1.6.4
    Attachments                 : CINEMANIAHD.png
    Site                        : CinemaniaHDD.Net
    Uploader                    : Melkor

    Video
    ID                          : 1
    Format                      : AVC
    Format/Info                 : Advanced Video Codec
    Format profile              : High@L4
    Format settings             : CABAC / 4 Ref Frames
    Format settings, CABAC      : Yes
    Format settings, Reference  : 4 frames
    Codec ID                    : V_MPEG4/ISO/AVC
    Duration                    : 1 h 42 min
    Bit rate mode               : Variable
    Bit rate                    : 7 618 kb/s
    Maximum bit rate            : 20.0 Mb/s
    Width                       : 1 920 pixels
    Height                      : 1 080 pixels
    Display aspect ratio        : 16:9
    Frame rate mode             : Constant
    Frame rate                  : 24.000 FPS
    Color space                 : YUV
    Chroma subsampling          : 4:2:0
    Bit depth                   : 8 bits
    Scan type                   : Progressive
    Bits/(Pixel*Frame)          : 0.153
    Stream size                 : 5.45 GiB (95%)
    Title                       : WEB HD1080p [CinemaniaHDD]
    Writing library             : x264 core 148 r2727 7d026e8
    Encoding settings           : cabac=1 / ref=4 / deblock=1:0:0 / analyse=0x3:0x111 / me=umh / subme=10 / psy=1 / psy_rd=1.00:0.00 / mixed_ref=1 / me_range=120 / chroma_me=1 / trellis=2 / 8x8dct=1 / cqm=0 / deadzone=21,11 / fast_pskip=1 / chroma_qp_offset=-2 / threads=6 / lookahead_threads=1 / sliced_threads=0 / nr=0 / decimate=1 / interlaced=0 / bluray_compat=0 / stitchable=1 / constrained_intra=0 / bframes=16 / b_pyramid=2 / b_adapt=2 / b_bias=0 / direct=3 / weightb=1 / open_gop=0 / weightp=2 / keyint=240 / keyint_min=121 / scenecut=0 / intra_refresh=0 / rc_lookahead=240 / rc=crf / mbtree=1 / crf=17.0 / qcomp=0.50 / qpmin=6 / qpmax=51 / qpstep=4 / vbv_maxrate=20000 / vbv_bufsize=25000 / crf_max=0.0 / nal_hrd=vbr / filler=0 / ip_ratio=1.40 / aq=1:0.80
    Default                     : Yes
    Forced                      : Yes

    Audio
    ID                          : 2
    Format                      : AC-3
    Format/Info                 : Audio Coding 3
    Commercial name             : Dolby Digital
    Codec ID                    : A_AC3
    Duration                    : 1 h 42 min
    Bit rate mode               : Constant
    Bit rate                    : 384 kb/s
    Channel(s)                  : 6 channels
    Channel layout              : L R C LFE Ls Rs
    Sampling rate               : 48.0 kHz
    Frame rate                  : 31.250 FPS (1536 SPF)
    Compression mode            : Lossy
    Stream size                 : 282 MiB (5%)
    Title                       : Español [CinemaniaHDD]
    Language                    : Spanish
    Service kind                : Complete Main
    Default                     : Yes
    Forced                      : Yes

    Text #1
    ID                          : 3
    Format                      : UTF-8
    Codec ID                    : S_TEXT/UTF8
    Codec ID/Info               : UTF-8 Plain Text
    Duration                    : 55 s 833 ms
    Bit rate                    : 32 b/s
    Count of elements           : 11
    Stream size                 : 228 Bytes (0%)
    Title                       : Forzados-SRT [CinemaniaHDD]
    Language                    : Spanish
    Default                     : Yes
    Forced                      : Yes

    Text #2
    ID                          : 4
    Format                      : UTF-8
    Codec ID                    : S_TEXT/UTF8
    Codec ID/Info               : UTF-8 Plain Text
    Duration                    : 1 h 41 min
    Bit rate                    : 55 b/s
    Count of elements           : 1266
    Stream size                 : 41.4 KiB (0%)
    Title                       : Español-SRT [CinemaniaHDD]
    Language                    : Spanish
    Default                     : No
    Forced                      : No

    Text #3
    ID                          : 5
    Format                      : UTF-8
    Codec ID                    : S_TEXT/UTF8
    Codec ID/Info               : UTF-8 Plain Text
    Duration                    : 1 h 41 min
    Bit rate                    : 41 b/s
    Count of elements           : 1056
    Stream size                 : 31.1 KiB (0%)
    Title                       : Ingles-SRT [CinemaniaHDD]
    Language                    : English
    Default                     : No
    Forced                      : No

  • Peso: 5.73 GiB

Sinopsis

Descargar Mi soledad tiene alas (2023) NF WEB-DL 1080p Español. En un barrio humilde a las afueras de Barcelona, Dan y sus dos amigos, Vio y Reno, viven sin pensar en el mañana, entre fiestas y dando palos a joyerías. Detrás de su apariencia de pequeño delincuente, Dan esconde un artista con talento, y una sensibilidad distinta al mundo que le rodea. La reaparición de su padre, tras salir de la cárcel, despierta los viejos demonios de Dan, sumergiéndolo en una espiral de violencia que le obliga a huir y pone a prueba la amistad entre los tres amigos. Empieza un viaje de descubrimiento sin retorno para Dan y Vio, donde tienen que dejar atrás los niños que fueron, cambiando sus vidas para siempre. ¿Podrán escapar de su destino por amor?

Ficha técnica

  • Titulo original: Mi soledad tiene alas
  • Fecha de lanzamiento: 25-08-2023 (Spain)
  • Director: Mario Casas
  • Género: Drama, Netflix

Video trailer de la película

Enlaces de descarga

Rip de Bluray

Descargar Mi soledad tiene alas (2023) NF WEB-DL 1080p Español




Aportes de DPeliculasHDmega la pass es:dpeliculashdmega.org Aportes de CinemaniaHD la pass es:cinemaniahdd.com Aportes recientes:cinemaniahdd.net
Guardado en : Drama , Netflix

Películas relacionadas

descargar Mi soledad tiene alas (2023) NF WEB-DL 1080p Español WEBDL 1080p gratis, Mi soledad tiene alas (2023) NF WEB-DL 1080p Español WEBDL mega 1 link, Mi soledad tiene alas (2023) NF WEB-DL 1080p Español WEBDL pelicula completa, descargar Mi soledad tiene alas (2023) NF WEB-DL 1080p Español WEBDL gratis en mega.

Mi soledad tiene alas (2023) NF WEB-DL 1080p Español pelicula full hd, Mi soledad tiene alas (2023) NF WEB-DL 1080p Español mega latino, Mi soledad tiene alas (2023) NF WEB-DL 1080p Español 4k latino, Mi soledad tiene alas (2023) NF WEB-DL 1080p Español pelicula completa, Mi soledad tiene alas (2023) NF WEB-DL 1080p Español descargar gratis, descargar Mi soledad tiene alas (2023) NF WEB-DL 1080p Español pelicula latino, Mi soledad tiene alas (2023) NF WEB-DL 1080p Español 1 link mega, Mi soledad tiene alas (2023) NF WEB-DL 1080p Español 1 link google drive, Mi soledad tiene alas (2023) NF WEB-DL 1080p Español hd 1080p latino.
Comentarios 0