×

¿Problemas para descargar con Mozilla, EDGE? Deshabilita la opción "Abrir vinculos en una pestaña nueva" tal como lo muestra ésta imagen.

Misión: Imposible – Sentencia mortal parte uno (2023) AMZN WEB-DL 1080p Latino

218 vistas

Información de Misión: Imposible – Sentencia mortal parte uno (2023) AMZN WEB-DL 1080p Latino

Datos de la película

  • Calidad: WEBDL
  • Audio: Español Latino AC3 5.1 WEB-DL - Ingles AC3 5.1 WEB-DL
  • Subtitulos: Español Latino SRT- FORZADOS SRT
  • Resolución: 1920x800p
  • Formato: MKV
  • Codec: H.264
  • Encoder: Melkor
  • Mediainfo: Clic para Mostrar Datos Ver
  • MI Sentencia Mortal Pt 1 (2023) AMZN WebDL 1080p Latino.mkv
    Format                      : Matroska
    Format version              : Version 4
    File size                   : 13.3 GiB
    Duration                    : 2 h 46 min
    Overall bit rate            : 11.4 Mb/s
    Movie name                  : Mission Impossible. Dead Reckoning .Part One (2023) CinemaniaHDD.Net
    Encoded date                : UTC 2023-10-09 18:02:15
    Writing application         : mkvmerge v56.1.0 ('My Friend') 64-bit
    Writing library             : libebml v1.4.2 + libmatroska v1.6.4
    Attachments                 : CINEMANIAHD.png
    Site                        : CinemaniaHDD.Net
    Uploader                    : Melkor

    Video
    ID                          : 1
    Format                      : AVC
    Format/Info                 : Advanced Video Codec
    Format profile              : High@L4
    Format settings             : CABAC / 4 Ref Frames
    Format settings, CABAC      : Yes
    Format settings, Reference  : 4 frames
    Codec ID                    : V_MPEG4/ISO/AVC
    Duration                    : 2 h 46 min
    Bit rate mode               : Constant
    Bit rate                    : 9 346 kb/s
    Nominal bit rate            : 10 000 kb/s
    Width                       : 1 920 pixels
    Height                      : 800 pixels
    Display aspect ratio        : 2.40:1
    Frame rate mode             : Constant
    Frame rate                  : 23.976 (24000/1001) FPS
    Color space                 : YUV
    Chroma subsampling          : 4:2:0
    Bit depth                   : 8 bits
    Scan type                   : Progressive
    Bits/(Pixel*Frame)          : 0.254
    Stream size                 : 10.9 GiB (82%)
    Title                       : Web HD1080p [CinemaniaHDD]
    Language                    : English
    Default                     : Yes
    Forced                      : Yes
    Color range                 : Limited
    Color primaries             : BT.709
    Transfer characteristics    : BT.709
    Matrix coefficients         : BT.709

    Audio #1
    ID                          : 2
    Format                      : AC-3
    Format/Info                 : Audio Coding 3
    Commercial name             : Dolby Digital
    Codec ID                    : A_AC3
    Duration                    : 2 h 46 min
    Bit rate mode               : Constant
    Bit rate                    : 640 kb/s
    Channel(s)                  : 6 channels
    Channel layout              : L R C LFE Ls Rs
    Sampling rate               : 48.0 kHz
    Frame rate                  : 31.250 FPS (1536 SPF)
    Compression mode            : Lossy
    Stream size                 : 763 MiB (6%)
    Title                       : Español Latino AC3 [CinemaniaHDD]
    Language                    : Spanish
    Service kind                : Complete Main
    Default                     : Yes
    Forced                      : Yes

    Audio #2
    ID                          : 3
    Format                      : E-AC-3
    Format/Info                 : Enhanced AC-3
    Commercial name             : Dolby Digital Plus
    Codec ID                    : A_EAC3
    Duration                    : 2 h 46 min
    Bit rate mode               : Constant
    Bit rate                    : 640 kb/s
    Channel(s)                  : 6 channels
    Channel layout              : L R C LFE Ls Rs
    Sampling rate               : 48.0 kHz
    Frame rate                  : 31.250 FPS (1536 SPF)
    Compression mode            : Lossy
    Stream size                 : 763 MiB (6%)
    Title                       : Español Latino EAC3 [CinemaniaHDD]
    Language                    : Spanish
    Service kind                : Complete Main
    Default                     : No
    Forced                      : No

    Audio #3
    ID                          : 4
    Format                      : E-AC-3 JOC
    Format/Info                 : Enhanced AC-3 with Joint Object Coding
    Commercial name             : Dolby Digital Plus with Dolby Atmos
    Codec ID                    : A_EAC3
    Duration                    : 2 h 43 min
    Bit rate mode               : Constant
    Bit rate                    : 768 kb/s
    Channel(s)                  : 6 channels
    Channel layout              : L R C LFE Ls Rs
    Sampling rate               : 48.0 kHz
    Frame rate                  : 31.250 FPS (1536 SPF)
    Compression mode            : Lossy
    Delay relative to video     : 21 ms
    Stream size                 : 898 MiB (7%)
    Title                       : Ingles [CinemaniaHDD]
    Language                    : English
    Service kind                : Complete Main
    Default                     : No
    Forced                      : No
    Complexity index            : 16
    Number of dynamic objects   : 15
    Bed channel count           : 1 channel
    Bed channel configuration   : LFE

    Text #1
    ID                          : 5
    Format                      : UTF-8
    Codec ID                    : S_TEXT/UTF8
    Codec ID/Info               : UTF-8 Plain Text
    Duration                    : 2 h 35 min
    Bit rate                    : 1 b/s
    Count of elements           : 60
    Stream size                 : 1.41 KiB (0%)
    Title                       : Forzados-SRT [CinemaniaHDD]
    Language                    : Spanish
    Default                     : Yes
    Forced                      : Yes

    Text #2
    ID                          : 6
    Format                      : UTF-8
    Codec ID                    : S_TEXT/UTF8
    Codec ID/Info               : UTF-8 Plain Text
    Duration                    : 2 h 42 min
    Bit rate                    : 48 b/s
    Count of elements           : 1816
    Stream size                 : 57.8 KiB (0%)
    Title                       : Español-SRT [CinemaniaHDD]
    Language                    : Spanish
    Default                     : No
    Forced                      : No

    Text #3
    ID                          : 7
    Format                      : UTF-8
    Codec ID                    : S_TEXT/UTF8
    Codec ID/Info               : UTF-8 Plain Text
    Duration                    : 2 h 34 min
    Bit rate                    : 52 b/s
    Count of elements           : 1821
    Stream size                 : 59.7 KiB (0%)
    Title                       : Ingles-SRT [CinemaniaHDD]
    Language                    : English
    Default                     : No
    Forced                      : No

    Menu
    00:00:00.021                : Chapter 01
    00:07:23.798                : Chapter 02
    00:15:48.344                : Chapter 03
    00:28:03.579                : Chapter 04
    00:32:36.310                : Chapter 05
    00:45:36.632                : Chapter 06
    00:55:57.294                : Chapter 07
    01:08:52.695                : Chapter 08
    01:17:42.850                : Chapter 09
    01:31:16.956                : Chapter 10
    01:41:37.618                : Chapter 11
    01:51:37.760                : Chapter 12
    02:01:39.612                : Chapter 13
    02:14:11.072                : Chapter 14
    02:21:30.511                : Chapter 15
    02:35:25.846                : Chapter 16

  • Peso: 13.3 GiB

Sinopsis

Descargar Misión: Imposible – Sentencia mortal parte uno (2023) AMZN WEB-DL 1080p Latino. Ethan Hunt y su equipo del FMI, se embarcan en su misión más peligrosa hasta la fecha: localizar, antes de que caiga en las manos equivocadas, una nueva y terrorífica arma que amenaza a toda la humanidad. En esta tesitura, y con unas fuerzas oscuras del pasado de Ethan acechando, comienza una carrera mortal alrededor del mundo en la que está en juego el control del futuro y el destino del planeta. Enfrentado a un enemigo misterioso y todopoderoso, Ethan se ve obligado a considerar que nada puede anteponerse a su misión, ni siquiera las vidas de aquellos que más le importan.

Ficha técnica

Video trailer de la película

Enlaces de descarga

Rip de Bluray

Descargar Misión: Imposible – Sentencia mortal parte uno (2023) AMZN WEB-DL 1080p Latino




Aportes de DPeliculasHDmega la pass es:dpeliculashdmega.org Aportes de CinemaniaHD la pass es:cinemaniahdd.com Aportes recientes:cinemaniahdd.net
Guardado en : Acción , Suspenso

Películas relacionadas

descargar Misión: Imposible – Sentencia mortal parte uno (2023) AMZN WEB-DL 1080p Latino WEBDL 1080p gratis, Misión: Imposible – Sentencia mortal parte uno (2023) AMZN WEB-DL 1080p Latino WEBDL mega 1 link, Misión: Imposible – Sentencia mortal parte uno (2023) AMZN WEB-DL 1080p Latino WEBDL pelicula completa, descargar Misión: Imposible – Sentencia mortal parte uno (2023) AMZN WEB-DL 1080p Latino WEBDL gratis en mega.

Misión: Imposible – Sentencia mortal parte uno (2023) AMZN WEB-DL 1080p Latino pelicula full hd, Misión: Imposible – Sentencia mortal parte uno (2023) AMZN WEB-DL 1080p Latino mega latino, Misión: Imposible – Sentencia mortal parte uno (2023) AMZN WEB-DL 1080p Latino 4k latino, Misión: Imposible – Sentencia mortal parte uno (2023) AMZN WEB-DL 1080p Latino pelicula completa, Misión: Imposible – Sentencia mortal parte uno (2023) AMZN WEB-DL 1080p Latino descargar gratis, descargar Misión: Imposible – Sentencia mortal parte uno (2023) AMZN WEB-DL 1080p Latino pelicula latino, Misión: Imposible – Sentencia mortal parte uno (2023) AMZN WEB-DL 1080p Latino 1 link mega, Misión: Imposible – Sentencia mortal parte uno (2023) AMZN WEB-DL 1080p Latino 1 link google drive, Misión: Imposible – Sentencia mortal parte uno (2023) AMZN WEB-DL 1080p Latino hd 1080p latino.
Comentarios 0