Mi segunda vez (2009) Full 1080p Latino

2.329 vistas
1 estrella2 estrellas3 estrellas4 estrellas5 estrellas (2 votos, promedio: 3,00 de 5)
Cargando…

Información de Mi segunda vez (2009) Full 1080p Latino

Datos de la película

  • Calidad: Full 1080p
  • Audio: Español Latino AC3 2.0 Netflix - Ingles DTS 5.1 BURAY
  • Subtitulos: Español Latino SRT
  • Resolución: 1920X1080p
  • Formato: MKV
  • Codec: H.264
  • Encoder: Dracarys
  • Mediainfo: Clic para Mostrar Datos Ver
  • Format                                   : Matroska
    Format version                           : Version 4 / Version 2
    File size                                : 3.58 GiB
    Duration                                 : 1 h 34 min
    Overall bit rate                         : 5 409 kb/s
    Movie name                               : CinemaniaHDD.com
    Encoded date                             : UTC 2018-01-05 07:04:32 / UTC 2017-12-27T07:32:17Z
    Writing application                      : mkvmerge v15.0.0 ('Duel with the Devil') 64-bit
    Writing library                          : libebml v1.3.5 + libmatroska v1.4.5 / Lavf57.7.2

    Video
    ID                                       : 1
    Format                                   : AVC
    Format/Info                              : Advanced Video Codec
    Format profile                           : [email protected]
    Format settings                          : CABAC / 4 Ref Frames
    Format settings, CABAC                   : Yes
    Format settings, RefFrames               : 4 frames
    Codec ID                                 : V_MPEG4/ISO/AVC
    Duration                                 : 1 h 34 min
    Bit rate                                 : 3 600 kb/s
    Width                                    : 1 920 pixels
    Height                                   : 1 080 pixels
    Display aspect ratio                     : 16:9
    Frame rate mode                          : Constant
    Frame rate                               : 23.976 (24000/1001) FPS
    Color space                              : YUV
    Chroma subsampling                       : 4:2:0
    Bit depth                                : 8 bits
    Scan type                                : Progressive
    Bits/(Pixel*Frame)                       : 0.072
    Stream size                              : 2.38 GiB (67%)
    Title                                    : Mi segunda vez (2009) Full 1080p Latino
    Writing library                          : x264 core 148 r2708 86b7198
    Encoding settings                        : cabac=1 / ref=4 / deblock=1:0:0 / analyse=0x3:0x133 / me=esa / subme=10 / psy=1 / psy_rd=1.00:0.00 / mixed_ref=1 / me_range=24 / chroma_me=1 / trellis=2 / 8x8dct=1 / cqm=0 / deadzone=21,11 / fast_pskip=1 / chroma_qp_offset=-2 / threads=34 / lookahead_threads=5 / sliced_threads=0 / nr=0 / decimate=1 / interlaced=0 / bluray_compat=0 / constrained_intra=0 / bframes=8 / b_pyramid=2 / b_adapt=2 / b_bias=0 / direct=3 / weightb=1 / open_gop=0 / weightp=2 / keyint=240 / keyint_min=24 / scenecut=40 / intra_refresh=0 / rc_lookahead=60 / rc=crf / mbtree=1 / crf=20.0 / qcomp=0.60 / qpmin=0 / qpmax=69 / qpstep=4 / vbv_maxrate=62500 / vbv_bufsize=78125 / crf_max=0.0 / nal_hrd=none / filler=0 / ip_ratio=1.40 / aq=1:1.00
    Language                                 : English
    Default                                  : Yes
    Forced                                   : No
    Color range                              : Limited
    Color primaries                          : BT.709
    Transfer characteristics                 : BT.709
    Matrix coefficients                      : BT.709
    Statistics Tags Issue                    : mkvmerge v15.0.0 ('Duel with the Devil') 64-bit 2018-01-05 07:04:32 / mkvmerge v15.0.0 ('Duel with the Devil') 64-bit 2018-01-05 07:04:32 / UTC 2017-12-27T07:32:17Z
    FromStats_BitRate                        : 3705566
    FromStats_Duration                       : 01:34:44.512000000
    FromStats_FrameCount                     : 136292
    FromStats_StreamSize                     : 2633042030

    Audio #1
    ID                                       : 2
    Format                                   : AC-3
    Format/Info                              : Audio Coding 3
    Format settings, Endianness              : Big
    Codec ID                                 : A_AC3
    Duration                                 : 1 h 34 min
    Bit rate mode                            : Constant
    Bit rate                                 : 192 kb/s
    Channel(s)                               : 2 channels
    Channel positions                        : Front: L R
    Sampling rate                            : 48.0 kHz
    Frame rate                               : 31.250 FPS (1536 SPF)
    Bit depth                                : 16 bits
    Compression mode                         : Lossy
    Delay relative to video                  : 3 s 500 ms
    Stream size                              : 130 MiB (4%)
    Language                                 : Spanish
    Service kind                             : Complete Main
    Default                                  : Yes
    Forced                                   : No
    Statistics Tags Issue                    : mkvmerge v15.0.0 ('Duel with the Devil') 64-bit 2018-01-05 07:04:32 / mkvmerge v15.0.0 ('Duel with the Devil') 64-bit 2018-01-05 07:04:32 / UTC 2017-12-27T07:32:17Z
    FromStats_BitRate                        : 192000
    FromStats_Duration                       : 01:34:41.056000000
    FromStats_FrameCount                     : 177533
    FromStats_StreamSize                     : 136345344

    Audio #2
    ID                                       : 3
    Format                                   : DTS
    Format/Info                              : Digital Theater Systems
    Mode                                     : 16
    Format settings, Endianness              : Big
    Codec ID                                 : A_DTS
    Duration                                 : 1 h 34 min
    Bit rate mode                            : Constant
    Bit rate                                 : 1 509 kb/s
    Channel(s)                               : 6 channels
    Channel positions                        : Front: L C R, Side: L R, LFE
    Sampling rate                            : 48.0 kHz
    Frame rate                               : 93.750 FPS (512 SPF)
    Bit depth                                : 24 bits
    Compression mode                         : Lossy
    Stream size                              : 1 023 MiB (28%)
    Language                                 : English
    Default                                  : No
    Forced                                   : No
    Statistics Tags Issue                    : mkvmerge v15.0.0 ('Duel with the Devil') 64-bit 2018-01-05 07:04:32 / mkvmerge v15.0.0 ('Duel with the Devil') 64-bit 2018-01-05 07:04:32 / UTC 2017-12-27T07:32:17Z
    FromStats_BitRate                        : 1509000
    FromStats_Duration                       : 01:34:44.512000000
    FromStats_FrameCount                     : 532923
    FromStats_StreamSize                     : 1072241076

    Text
    ID                                       : 4
    Format                                   : UTF-8
    Codec ID                                 : S_TEXT/UTF8
    Codec ID/Info                            : UTF-8 Plain Text
    Language                                 : Spanish
    Default                                  : No
    Forced                                   : No
    Statistics Tags Issue                    : mkvmerge v15.0.0 ('Duel with the Devil') 64-bit 2018-01-05 07:04:32 / mkvmerge v15.0.0 ('Duel with the Devil') 64-bit 2018-01-05 07:04:32 / UTC 2017-12-27T07:32:17Z
    FromStats_BitRate                        : 54
    FromStats_Duration                       : 01:29:22.623000000
    FromStats_FrameCount                     : 1183
    FromStats_StreamSize                     : 36654

    Menu
    00:00:00.000                             : :Chapter 1
    00:11:07.750                             : :Chapter 2
    00:18:31.902                             : :Chapter 3
    00:28:20.407                             : :Chapter 4
    00:35:31.046                             : :Chapter 5
    00:42:38.222                             : :Chapter 6
    00:51:54.862                             : :Chapter 7
    01:02:13.647                             : :Chapter 8
    01:13:18.686                             : :Chapter 9
    01:17:08.916                             : :Chapter 10
    01:24:34.861                             : :Chapter 11
    01:30:51.363                             : :Chapter 12

  • Peso: 3.58 GiB

Sinopsis

Cuando Sandy (Catherine Zeta-Jones), una sexy madre de 40 años, descubre que su marido la engaña, su mundo aparentemente perfecto se viene abajo. Sin pensárselo dos veces, se traslada a Nueva York con sus dos hijos con ánimo de rehacer su vida. Allí, conoce a Aram (Justin Bartha), un encantador licenciado universitario de 25 años que trabaja en la cafetería bajo el apartamento que alquila Sandy. Cuando Sandy encuentra trabajo, le pide a Aram que haga de canguro de sus hijos. La carrera de Sandy empieza a despegar y Aram se va convirtiendo en una parte cada vez más importante de su vida. Es divertido y sus hijos lo adoran. Muy pronto, esta improvisada familia va tomando forma y, aunque hay una larga lista de razones por las que no deberían estar juntos, se enamoran. Sandy y Aram se topan con la resistencia de familiares y amigos a su nueva relación y ambos tendrán que decidir si lo que tienen es algo simplemente divertido y temporal o puede tratarse de algo realmente duradero…

Ficha técnica

Video trailer de la película

Enlaces de descarga

Rip de Bluray

Descargar Mi segunda vez (2009) Full 1080p Latino




Aportes de DPeliculasHDmega la pass es:dpeliculashdmega.org Aportes de CinemaniaHD la pass es:cinemaniahdd.com

Películas relacionadas

  • Samantha! (2019) Temporada 1 y 2 NF 1080p Latino

    2018
    Samantha! (2019) Temporada 1 y 2 NF 1080p Latino

    0.0 0h 28m 2018

    Samantha, una estrella infantil en la década de los 80, se aferra a los límites de la celebridad con...

    Director: Felipe Braga

    Género: Comedia

    Actores: Sidney Alexandre

  • Someone Great (2019) NF 1080p Latino

    2019
    Someone Great (2019) NF 1080p Latino

    0.0 1h 32m 2019

    Para Makani Young, mudarse a Nebraska desde Hawaii, resultó todo un choque cultural. Todavía adaptándose...

    Director: Jennifer Kaytin Robinson

    Género: Comedia

    Actores: Thomas Kopache

  • Super Campones (2018) Temporada 1 NF 1080p Latino

    2018
    Super Campones (2018) Temporada 1 NF 1080p Latino

    0.0 0h 22m 2018

    La historia apasionada de un estudiante de escuela primaria cuyos pensamientos y sueños giran casi enteramente...

    Director: Toshiyuki Kato

    Género: Animación

    Actores: Yuuko Sanpei

  • The Final Wish (2018) Full 1080p Subtitulado

    2019
    The Final Wish (2018) Full 1080p Subtitulado

    0.0 1h 35m 2019

    Descargar The Final Wish (2018) Full 1080p Subtitulado. Aaron (Michael Welch) es un abogado con problemas...

    Director: Timothy Woodward Jr.

    Género: FULL 1080p Plateadas

    Actores: Tony Todd

Comentarios 0