Mi primer amor (2010) Full 1080p Latino

1.351 vistas
1 estrella2 estrellas3 estrellas4 estrellas5 estrellas (2 votos, promedio: 5,00 de 5)
Cargando…

Información de Mi primer amor (2010) Full 1080p Latino

Datos de la película

  • Calidad: Full 1080p
  • Audio: Español Latino AC3 5.1 BLURAY - Ingles DTS 5.1 BLURAY
  • Subtitulos: Español Latino PGS - Ingles PGS
  • Resolución: 1920X1080p
  • Formato: MKV
  • Codec: H.264
  • Encoder: Dracarys
  • Mediainfo: Clic para Mostrar Datos Ver
  • Format                                   : Matroska
    Format version                           : Version 4 / Version 2
    File size                                : 4.80 GiB
    Duration                                 : 1 h 29 min
    Overall bit rate                         : 7 649 kb/s
    Movie name                               : CinemaniaHDD.com
    Encoded date                             : UTC 2018-03-17 05:13:39 / UTC 2018-03-17T02:01:45Z
    Writing application                      : mkvmerge v15.0.0 ('Duel with the Devil') 64-bit
    Writing library                          : libebml v1.3.5 + libmatroska v1.4.5 / Lavf57.7.2

    Video
    ID                                       : 1
    Format                                   : AVC
    Format/Info                              : Advanced Video Codec
    Format profile                           : High@L4.1
    Format settings                          : CABAC / 4 Ref Frames
    Format settings, CABAC                   : Yes
    Format settings, RefFrames               : 4 frames
    Codec ID                                 : V_MPEG4/ISO/AVC
    Duration                                 : 1 h 29 min
    Bit rate                                 : 5 540 kb/s
    Width                                    : 1 920 pixels
    Height                                   : 1 080 pixels
    Display aspect ratio                     : 16:9
    Frame rate mode                          : Constant
    Frame rate                               : 23.976 (24000/1001) FPS
    Color space                              : YUV
    Chroma subsampling                       : 4:2:0
    Bit depth                                : 8 bits
    Scan type                                : Progressive
    Bits/(Pixel*Frame)                       : 0.111
    Stream size                              : 3.47 GiB (72%)
    Title                                    : Mi primer amor (2010) Full 1080p Latino
    Writing library                          : x264 core 148 r2708 86b7198
    Encoding settings                        : cabac=1 / ref=4 / deblock=1:0:0 / analyse=0x3:0x133 / me=esa / subme=9 / psy=1 / psy_rd=1.00:0.00 / mixed_ref=1 / me_range=16 / chroma_me=1 / trellis=2 / 8x8dct=1 / cqm=0 / deadzone=21,11 / fast_pskip=1 / chroma_qp_offset=-2 / threads=34 / lookahead_threads=2 / sliced_threads=0 / nr=0 / decimate=1 / interlaced=0 / bluray_compat=0 / constrained_intra=0 / bframes=3 / b_pyramid=2 / b_adapt=2 / b_bias=0 / direct=3 / weightb=1 / open_gop=0 / weightp=2 / keyint=240 / keyint_min=24 / scenecut=40 / intra_refresh=0 / rc_lookahead=60 / rc=crf / mbtree=1 / crf=21.0 / qcomp=0.60 / qpmin=0 / qpmax=69 / qpstep=4 / vbv_maxrate=62500 / vbv_bufsize=78125 / crf_max=0.0 / nal_hrd=none / filler=0 / ip_ratio=1.40 / aq=1:1.00
    Language                                 : English
    Default                                  : Yes
    Forced                                   : No
    Color range                              : Limited
    Color primaries                          : BT.709
    Transfer characteristics                 : BT.709
    Matrix coefficients                      : BT.709
    Statistics Tags Issue                    : mkvmerge v15.0.0 ('Duel with the Devil') 64-bit 2018-03-17 05:13:39 / mkvmerge v15.0.0 ('Duel with the Devil') 64-bit 2018-03-17 05:13:39 / UTC 2018-03-17T02:01:45Z
    FromStats_BitRate                        : 5629509
    FromStats_Duration                       : 01:29:45.172000000
    FromStats_FrameCount                     : 129115
    FromStats_StreamSize                     : 3789484621

    Audio #1
    ID                                       : 2
    Format                                   : AC-3
    Format/Info                              : Audio Coding 3
    Format settings, Endianness              : Big
    Codec ID                                 : A_AC3
    Duration                                 : 1 h 29 min
    Bit rate mode                            : Constant
    Bit rate                                 : 448 kb/s
    Channel(s)                               : 6 channels
    Channel positions                        : Front: L C R, Side: L R, LFE
    Sampling rate                            : 48.0 kHz
    Frame rate                               : 31.250 FPS (1536 SPF)
    Bit depth                                : 16 bits
    Compression mode                         : Lossy
    Stream size                              : 288 MiB (6%)
    Language                                 : Spanish
    Service kind                             : Complete Main
    Default                                  : Yes
    Forced                                   : No
    Statistics Tags Issue                    : mkvmerge v15.0.0 ('Duel with the Devil') 64-bit 2018-03-17 05:13:39 / mkvmerge v15.0.0 ('Duel with the Devil') 64-bit 2018-03-17 05:13:39 / UTC 2018-03-17T02:01:45Z
    FromStats_BitRate                        : 448000
    FromStats_Duration                       : 01:29:45.216000000
    FromStats_FrameCount                     : 168288
    FromStats_StreamSize                     : 301572096

    Audio #2
    ID                                       : 3
    Format                                   : DTS
    Format/Info                              : Digital Theater Systems
    Mode                                     : 16
    Format settings, Endianness              : Big
    Codec ID                                 : A_DTS
    Duration                                 : 1 h 29 min
    Bit rate mode                            : Constant
    Bit rate                                 : 1 509 kb/s
    Channel(s)                               : 6 channels
    Channel positions                        : Front: L C R, Side: L R, LFE
    Sampling rate                            : 48.0 kHz
    Frame rate                               : 93.750 FPS (512 SPF)
    Bit depth                                : 24 bits
    Compression mode                         : Lossy
    Stream size                              : 969 MiB (20%)
    Language                                 : English
    Default                                  : No
    Forced                                   : No
    Statistics Tags Issue                    : mkvmerge v15.0.0 ('Duel with the Devil') 64-bit 2018-03-17 05:13:39 / mkvmerge v15.0.0 ('Duel with the Devil') 64-bit 2018-03-17 05:13:39 / UTC 2018-03-17T02:01:45Z
    FromStats_BitRate                        : 1508999
    FromStats_Duration                       : 01:29:45.206000000
    FromStats_FrameCount                     : 504863
    FromStats_StreamSize                     : 1015784356

    Text #1
    ID                                       : 4
    Format                                   : UTF-8
    Codec ID                                 : S_TEXT/UTF8
    Codec ID/Info                            : UTF-8 Plain Text
    Title                                    : SRT-Forzados
    Language                                 : Spanish
    Default                                  : No
    Forced                                   : No
    Statistics Tags Issue                    : mkvmerge v15.0.0 ('Duel with the Devil') 64-bit 2018-03-17 05:13:39 / mkvmerge v15.0.0 ('Duel with the Devil') 64-bit 2018-03-17 05:13:39 / UTC 2018-03-17T02:01:45Z
    FromStats_BitRate                        : 98
    FromStats_Duration                       : 01:23:28.698000000
    FromStats_FrameCount                     : 1543
    FromStats_StreamSize                     : 61687

    Text #2
    ID                                       : 5
    Format                                   : PGS
    Muxing mode                              : zlib
    Codec ID                                 : S_HDMV/PGS
    Codec ID/Info                            : Picture based subtitle format used on BDs/HD-DVDs
    Title                                    : PGS-Completos
    Language                                 : Spanish
    Default                                  : No
    Forced                                   : No
    Statistics Tags Issue                    : mkvmerge v15.0.0 ('Duel with the Devil') 64-bit 2018-03-17 05:13:39 / mkvmerge v15.0.0 ('Duel with the Devil') 64-bit 2018-03-17 05:13:39 / UTC 2018-03-17T02:01:45Z
    FromStats_BitRate                        : 81683
    FromStats_Duration                       : 01:23:28.675000000
    FromStats_FrameCount                     : 3086
    FromStats_StreamSize                     : 51140497

    Text #3
    ID                                       : 6
    Format                                   : PGS
    Muxing mode                              : zlib
    Codec ID                                 : S_HDMV/PGS
    Codec ID/Info                            : Picture based subtitle format used on BDs/HD-DVDs
    Title                                    : PGS-Completos
    Language                                 : English
    Default                                  : No
    Forced                                   : No
    Statistics Tags Issue                    : mkvmerge v15.0.0 ('Duel with the Devil') 64-bit 2018-03-17 05:13:39 / mkvmerge v15.0.0 ('Duel with the Devil') 64-bit 2018-03-17 05:13:39 / UTC 2018-03-17T02:01:45Z
    FromStats_BitRate                        : 50830
    FromStats_Duration                       : 01:28:47.113000000
    FromStats_FrameCount                     : 3178
    FromStats_StreamSize                     : 33847610

    Menu
    00:00:00.000                             : :Chapter 1
    00:09:59.974                             : :Chapter 2
    00:20:27.309                             : :Chapter 3
    00:31:19.002                             : :Chapter 4
    00:40:22.921                             : :Chapter 5
    00:49:34.263                             : :Chapter 6
    00:59:03.874                             : :Chapter 7
    01:09:08.936                             : :Chapter 8
    01:19:20.297                             : :Chapter 9
    01:24:09.211                             : :Chapter 10

  • Peso: 4.80 GiB

Sinopsis

Corre el año 1957. Juli y Bryce, dos niños de siete años aparentemente muy distintos, son vecinos y compañeros de clase. Juli se enamora de Bryce, pero él no siente lo mismo y durante seis años tratará de evitarla. Cuando, en 1963, siendo ya adolescentes, van a la escuela secundaria, las cosas cambian: Bryce empieza a mirar a Juli con otros ojos.

Ficha técnica

Video trailer de la película

Enlaces de descarga

Rip de Bluray

Descargar Mi primer amor (2010) Full 1080p Latino




Aportes de DPeliculasHDmega la pass es:dpeliculashdmega.org Aportes de CinemaniaHD la pass es:cinemaniahdd.com

Películas relacionadas

  • Roma (2018) Web-DL 1080p Latino

    2018
    Roma (2018) Web-DL 1080p Latino

    3.7 2h 14m 2018

    Descargar Roma (2018) Web-DL 1080p Latino, Mega, Google Drive, Torrent. Cleo (Yalitza Aparicio) es la...

    Director: Natalia Moguel

    Género: Drama

    Actores: Zarela Lizbeth Chinolla Arellano

  • Godzilla (2014) 1080p Latino

    2014
    Godzilla (2014) 1080p Latino

    0.0 2h 3m 2014

    Descargar Godzilla (2014) 1080p Latino, Mega, Google Drive, Torrent. Gareth Edwards dirige este "reboot",...

    Director: Jessica Clothier

    Género: Acción

    Actores: Yuki Morita

  • Godzilla (2014) Full 1080p Latino

    2014
    Godzilla (2014) Full 1080p Latino

    4.2 2h 3m 2014

    Descargar Godzilla (2014) Full 1080p Latino, Mega, Google Drive, Torrent. Gareth Edwards dirige este...

    Director: Jessica Clothier

    Género: Acción

    Actores: Yuki Morita

Comentarios 2
  • Amador Constante - 18 marzo, 2018

    Una de las mejores películas que he visto, adaptada de la novela homónima de la escritora estadounidense Wendelin Van Draanen. Lo descrito en ésta película, ¡quizás en algún momento de nuestra vida, nos ha ocurrido algo parecido!

    Gracias Dracarys por compartirla en una excelente calidad de audio y video.

    Buena suerte, DPeliculasHDMega. +

  • THeBestDavid01 - 17 marzo, 2018

    Muchas gracias! ya pensaba que no la iban a subir