×

¿Problemas para descargar con Mozilla, EDGE? Deshabilita la opción "Abrir vinculos en una pestaña nueva" tal como lo muestra ésta imagen.

Mi padre, el cazarrecompensas intergaláctico (2023) TEMPORADA 2 NF WEB-DL 1080p Latino

114 vistas

Información de Mi padre, el cazarrecompensas intergaláctico (2023) TEMPORADA 2 NF WEB-DL 1080p Latino

Datos de la película

  • Calidad: WEBDL
  • Audio: Español Latino E-AC3 5.1 Netflix - Ingles E-AC3 5.1 Netflix
  • Subtitulos: Español Latino SRT- FORZADOS SRT
  • Resolución: 1920x1080p
  • Formato: MKV
  • Codec: H.264
  • Encoder: Melkor
  • Mediainfo: Clic para Mostrar Datos Ver
  • My Dad the Bounty Hunter S02E01 (2023) NF WebDL 1080p Latino.mkv
    Format                      : Matroska
    Format version              : Version 4
    File size                   : 1.29 GiB
    Duration                    : 44 min 47 s
    Overall bit rate mode       : Variable
    Overall bit rate            : 4 128 kb/s
    Movie name                  : My Dad the Bounty Hunter S02E01 CinemaniaHDD.Net
    Encoded date                : UTC 2023-08-29 06:56:46
    Writing application         : mkvmerge v59.0.0 ('Shining Star') 64-bit
    Writing library             : libebml v1.4.2 + libmatroska v1.6.4
    Attachments                 : CINEMANIAHD.png
    Site                        : CinemaniaHDD.Net
    Uploader                    : Melkor

    Video
    ID                          : 1
    Format                      : AVC
    Format/Info                 : Advanced Video Codec
    Format profile              : Main@L4
    Format settings             : CABAC / 3 Ref Frames
    Format settings, CABAC      : Yes
    Format settings, Reference  : 3 frames
    Codec ID                    : V_MPEG4/ISO/AVC
    Duration                    : 44 min 47 s
    Bit rate mode               : Variable
    Bit rate                    : 2 845 kb/s
    Nominal bit rate            : 3 650 kb/s
    Maximum bit rate            : 5 475 kb/s
    Width                       : 1 920 pixels
    Height                      : 1 080 pixels
    Display aspect ratio        : 16:9
    Frame rate mode             : Constant
    Frame rate                  : 24.000 FPS
    Color space                 : YUV
    Chroma subsampling          : 4:2:0
    Bit depth                   : 8 bits
    Scan type                   : Progressive
    Bits/(Pixel*Frame)          : 0.057
    Stream size                 : 911 MiB (69%)
    Title                       : WEB HD1080p [CinemaniaHDD]
    Writing library             : x264 core 148 r2727 7d026e8
    Encoding settings           : cabac=1 / ref=3 / deblock=1:0:0 / analyse=0x1:0x111 / me=umh / subme=10 / psy=1 / psy_rd=1.00:0.00 / mixed_ref=1 / me_range=24 / chroma_me=1 / trellis=2 / 8x8dct=0 / cqm=0 / deadzone=21,11 / fast_pskip=1 / chroma_qp_offset=-2 / threads=8 / lookahead_threads=1 / sliced_threads=0 / nr=0 / decimate=1 / interlaced=0 / bluray_compat=0 / stitchable=1 / constrained_intra=0 / bframes=2 / b_pyramid=0 / b_adapt=2 / b_bias=0 / direct=3 / weightb=1 / open_gop=0 / weightp=2 / keyint=250 / keyint_min=24 / scenecut=0 / intra_refresh=0 / rc_lookahead=48 / rc=2pass / mbtree=1 / bitrate=3650 / ratetol=1.0 / qcomp=0.50 / qpmin=6 / qpmax=51 / qpstep=4 / cplxblur=20.0 / qblur=0.5 / vbv_maxrate=5475 / vbv_bufsize=7300 / nal_hrd=vbr / filler=0 / ip_ratio=1.40 / aq=1:1.00
    Default                     : Yes
    Forced                      : No

    Audio #1
    ID                          : 2
    Format                      : E-AC-3
    Format/Info                 : Enhanced AC-3
    Commercial name             : Dolby Digital Plus
    Codec ID                    : A_EAC3
    Duration                    : 44 min 47 s
    Bit rate mode               : Constant
    Bit rate                    : 640 kb/s
    Channel(s)                  : 6 channels
    Channel layout              : L R C LFE Ls Rs
    Sampling rate               : 48.0 kHz
    Frame rate                  : 31.250 FPS (1536 SPF)
    Compression mode            : Lossy
    Stream size                 : 205 MiB (16%)
    Title                       : Español Latino [CinemaniaHDD]
    Language                    : Spanish
    Service kind                : Complete Main
    Default                     : Yes
    Forced                      : No

    Audio #2
    ID                          : 3
    Format                      : E-AC-3
    Format/Info                 : Enhanced AC-3
    Commercial name             : Dolby Digital Plus
    Codec ID                    : A_EAC3
    Duration                    : 44 min 47 s
    Bit rate mode               : Constant
    Bit rate                    : 640 kb/s
    Channel(s)                  : 6 channels
    Channel layout              : L R C LFE Ls Rs
    Sampling rate               : 48.0 kHz
    Frame rate                  : 31.250 FPS (1536 SPF)
    Compression mode            : Lossy
    Stream size                 : 205 MiB (16%)
    Title                       : Ingles [CinemaniaHDD]
    Language                    : English
    Service kind                : Complete Main
    Default                     : No
    Forced                      : No

    Text #1
    ID                          : 4
    Format                      : UTF-8
    Codec ID                    : S_TEXT/UTF8
    Codec ID/Info               : UTF-8 Plain Text
    Duration                    : 37 min 58 s
    Bit rate                    : 1 b/s
    Count of elements           : 24
    Stream size                 : 440 Bytes (0%)
    Title                       : Forzados-SRT [CinemaniaHDD]
    Language                    : Spanish
    Default                     : Yes
    Forced                      : Yes

    Text #2
    ID                          : 5
    Format                      : UTF-8
    Codec ID                    : S_TEXT/UTF8
    Codec ID/Info               : UTF-8 Plain Text
    Duration                    : 41 min 35 s
    Bit rate                    : 55 b/s
    Count of elements           : 593
    Stream size                 : 17.0 KiB (0%)
    Title                       : Español-SRT [CinemaniaHDD]
    Language                    : Spanish
    Default                     : No
    Forced                      : No

    Text #3
    ID                          : 6
    Format                      : UTF-8
    Codec ID                    : S_TEXT/UTF8
    Codec ID/Info               : UTF-8 Plain Text
    Duration                    : 40 min 25 s
    Bit rate                    : 89 b/s
    Count of elements           : 839
    Stream size                 : 26.5 KiB (0%)
    Title                       : Ingles-SRT [CinemaniaHDD]
    Language                    : English
    Default                     : No
    Forced                      : No

  • Peso: 800 MiB Aprox C/U -- 7.88 GiB -- 9 Chapters

Sinopsis

Descargar Mi padre, el cazarrecompensas intergaláctico (2023) TEMPORADA 2 NF WEB-DL 1080p Latino. Esta serie de comedia y acción se centra en el cazarrecompensas más rudo de la galaxia, un hombre dotado de habilidades inigualables que esconde un secreto: su familia no tiene ni idea a qué se dedica. Cuando sus dos hijos viajan al espacio y se cuelan sin querer en una de sus misiones, descubren que el trabajo de papá no es para nada aburrido. Pasar un rato en familia se vuelve un poco extremo, ya que ahora deben escapar de peligrosos extraterrestres y evitar peleas con láser por doquier. ¿Qué dirá mamá cuando se entere?

Ficha técnica

Video trailer de la película

Enlaces de descarga

Rip de Bluray

Descargar Mi padre, el cazarrecompensas intergaláctico (2023) TEMPORADA 2 NF WEB-DL 1080p Latino




Aportes de DPeliculasHDmega la pass es:dpeliculashdmega.org Aportes de CinemaniaHD la pass es:cinemaniahdd.com Aportes recientes:cinemaniahdd.net

Películas relacionadas

descargar Mi padre, el cazarrecompensas intergaláctico (2023) TEMPORADA 2 NF WEB-DL 1080p Latino WEBDL 1080p gratis, Mi padre, el cazarrecompensas intergaláctico (2023) TEMPORADA 2 NF WEB-DL 1080p Latino WEBDL mega 1 link, Mi padre, el cazarrecompensas intergaláctico (2023) TEMPORADA 2 NF WEB-DL 1080p Latino WEBDL serie completa, descargar Mi padre, el cazarrecompensas intergaláctico (2023) TEMPORADA 2 NF WEB-DL 1080p Latino WEBDL gratis en mega.

Mi padre, el cazarrecompensas intergaláctico (2023) TEMPORADA 2 NF WEB-DL 1080p Latino pelicula full hd, Mi padre, el cazarrecompensas intergaláctico (2023) TEMPORADA 2 NF WEB-DL 1080p Latino mega latino, Mi padre, el cazarrecompensas intergaláctico (2023) TEMPORADA 2 NF WEB-DL 1080p Latino 4k latino, Mi padre, el cazarrecompensas intergaláctico (2023) TEMPORADA 2 NF WEB-DL 1080p Latino pelicula completa, Mi padre, el cazarrecompensas intergaláctico (2023) TEMPORADA 2 NF WEB-DL 1080p Latino descargar gratis, descargar Mi padre, el cazarrecompensas intergaláctico (2023) TEMPORADA 2 NF WEB-DL 1080p Latino pelicula latino, Mi padre, el cazarrecompensas intergaláctico (2023) TEMPORADA 2 NF WEB-DL 1080p Latino 1 link mega, Mi padre, el cazarrecompensas intergaláctico (2023) TEMPORADA 2 NF WEB-DL 1080p Latino 1 link google drive, Mi padre, el cazarrecompensas intergaláctico (2023) TEMPORADA 2 NF WEB-DL 1080p Latino hd 1080p latino.
Comentarios 0