×

¿Problemas para descargar con Mozilla, EDGE? Deshabilita la opción "Abrir vinculos en una pestaña nueva" tal como lo muestra ésta imagen.

Mi Novio Falso (2022) AMZN Web-DL 1080p Latino

344 vistas

Información de Mi Novio Falso (2022) AMZN Web-DL 1080p Latino

Datos de la película

  • Calidad: WEBDL
  • Audio: Español Latino AC3 5.1 WEB-DL - Ingles AC3 5.1 WEB-DL
  • Subtitulos: Español Latino SRT- FORZADOS SRT
  • Resolución: 1920x960p
  • Formato: MKV
  • Codec: H.264
  • Encoder: Melkor
  • Mediainfo: Clic para Mostrar Datos Ver
  • Mi Novio Falso (2022) AMZN WebDL 1080p Latino.mkv
    Format                      : Matroska
    Format version              : Version 4
    File size                   : 7.33 GiB
    Duration                    : 1 h 40 min
    Overall bit rate            : 10.5 Mb/s
    Movie name                  : My Fake Boyfriend (2022) CinemaniaHDD.Net
    Encoded date                : UTC 2022-06-10 05:52:27
    Writing application         : mkvmerge v56.1.0 ('My Friend') 64-bit
    Writing library             : libebml v1.4.2 + libmatroska v1.6.4
    Attachments                 : CINEMANIAHD.png

    Video
    ID                          : 1
    Format                      : AVC
    Format/Info                 : Advanced Video Codec
    Format profile              : High@L4
    Format settings             : CABAC / 4 Ref Frames
    Format settings, CABAC      : Yes
    Format settings, Reference  : 4 frames
    Codec ID                    : V_MPEG4/ISO/AVC
    Duration                    : 1 h 40 min
    Bit rate mode               : Constant
    Bit rate                    : 8 538 kb/s
    Nominal bit rate            : 10 000 kb/s
    Width                       : 1 920 pixels
    Height                      : 960 pixels
    Display aspect ratio        : 2.000
    Frame rate mode             : Constant
    Frame rate                  : 23.976 (24000/1001) FPS
    Color space                 : YUV
    Chroma subsampling          : 4:2:0
    Bit depth                   : 8 bits
    Scan type                   : Progressive
    Bits/(Pixel*Frame)          : 0.193
    Stream size                 : 5.98 GiB (82%)
    Title                       : Web HD1080p [CinemaniaHDD]
    Language                    : English
    Default                     : Yes
    Forced                      : Yes
    Color range                 : Limited
    Color primaries             : BT.709
    Transfer characteristics    : BT.709
    Matrix coefficients         : BT.709

    Audio #1
    ID                          : 2
    Format                      : AC-3
    Format/Info                 : Audio Coding 3
    Commercial name             : Dolby Digital
    Codec ID                    : A_AC3
    Duration                    : 1 h 40 min
    Bit rate mode               : Constant
    Bit rate                    : 640 kb/s
    Channel(s)                  : 6 channels
    Channel layout              : L R C LFE Ls Rs
    Sampling rate               : 48.0 kHz
    Frame rate                  : 31.250 FPS (1536 SPF)
    Compression mode            : Lossy
    Stream size                 : 459 MiB (6%)
    Title                       : Español Latino AC3 [CinemaniaHDD]
    Language                    : Spanish
    Service kind                : Complete Main
    Default                     : Yes
    Forced                      : Yes

    Audio #2
    ID                          : 3
    Format                      : E-AC-3
    Format/Info                 : Enhanced AC-3
    Commercial name             : Dolby Digital Plus
    Codec ID                    : A_EAC3
    Duration                    : 1 h 40 min
    Bit rate mode               : Constant
    Bit rate                    : 640 kb/s
    Channel(s)                  : 6 channels
    Channel layout              : L R C LFE Ls Rs
    Sampling rate               : 48.0 kHz
    Frame rate                  : 31.250 FPS (1536 SPF)
    Compression mode            : Lossy
    Stream size                 : 459 MiB (6%)
    Title                       : Ingles [CinemaniaHDD]
    Language                    : English
    Service kind                : Complete Main
    Default                     : No
    Forced                      : No

    Audio #3
    ID                          : 4
    Format                      : E-AC-3
    Format/Info                 : Enhanced AC-3
    Commercial name             : Dolby Digital Plus
    Codec ID                    : A_EAC3
    Duration                    : 1 h 40 min
    Bit rate mode               : Constant
    Bit rate                    : 640 kb/s
    Channel(s)                  : 6 channels
    Channel layout              : L R C LFE Ls Rs
    Sampling rate               : 48.0 kHz
    Frame rate                  : 31.250 FPS (1536 SPF)
    Compression mode            : Lossy
    Stream size                 : 459 MiB (6%)
    Title                       : Español Latino EAC3 [CinemaniaHDD]
    Language                    : Spanish
    Service kind                : Complete Main
    Default                     : No
    Forced                      : No

    Text #1
    ID                          : 5
    Format                      : UTF-8
    Codec ID                    : S_TEXT/UTF8
    Codec ID/Info               : UTF-8 Plain Text
    Duration                    : 1 h 35 min
    Bit rate                    : 3 b/s
    Count of elements           : 88
    Stream size                 : 2.57 KiB (0%)
    Title                       : Forzados-SRT [CinemaniaHDD]
    Language                    : Spanish
    Default                     : Yes
    Forced                      : Yes

    Text #2
    ID                          : 6
    Format                      : UTF-8
    Codec ID                    : S_TEXT/UTF8
    Codec ID/Info               : UTF-8 Plain Text
    Duration                    : 1 h 35 min
    Bit rate                    : 67 b/s
    Count of elements           : 1482
    Stream size                 : 46.9 KiB (0%)
    Title                       : Español-SRT [CinemaniaHDD]
    Language                    : Spanish
    Default                     : No
    Forced                      : No

    Text #3
    ID                          : 7
    Format                      : UTF-8
    Codec ID                    : S_TEXT/UTF8
    Codec ID/Info               : UTF-8 Plain Text
    Duration                    : 1 h 32 min
    Bit rate                    : 76 b/s
    Count of elements           : 1488
    Stream size                 : 51.5 KiB (0%)
    Title                       : Ingles-SRT [CinemaniaHDD]
    Language                    : English
    Default                     : No
    Forced                      : No

  • Peso: 7.33 GiB

Sinopsis

Descargar Mi Novio Falso (2022) AMZN Web-DL 1080p Latino. Para alejar a su ex tóxico, Andrew crea un novio falso en redes sociales, pero el plan le juega en contra cuando conoce a su amor verdadero en esta divertidísima comedia protagonizada por Keiynan Lonsdale, Dylan Sprouse y Sarah Hyland.

Ficha técnica

Video trailer de la película

Enlaces de descarga

Rip de Bluray

Descargar Mi Novio Falso (2022) AMZN Web-DL 1080p Latino




Aportes de DPeliculasHDmega la pass es:dpeliculashdmega.org Aportes de CinemaniaHD la pass es:cinemaniahdd.com
Guardado en : Comedia , Romance

Películas relacionadas

  • La familia Monster (2022) HD 1080p Latino

    La familia Monster (2022) HD 1080p Latino

    2022
    La familia Monster (2022) HD 1080p Latino

    1h 49m 2022

    Descargar La familia Monster (2022) HD 1080p Latino. Reboot de "The Munsters", que sigue las desventuras...

    Director: Rob Zombie

    Género: Comedia

    Actores: Tomas Boykin

  • La familia Monster (2022) REMUX 1080p Latino

    La familia Monster (2022) REMUX 1080p Latino

    2022
    La familia Monster (2022) REMUX 1080p Latino

    1h 49m 2022

    Descargar La familia Monster (2022) REMUX 1080p Latino. Reboot de "The Munsters", que sigue las desventuras...

    Director: Rob Zombie

    Género: Comedia

    Actores: Tomas Boykin

  • Cobra Kai (2022) Temporada 5 NF WEB-DL 1080p Latino

    Cobra Kai (2022) Temporada 5 NF WEB-DL 1080p Latino

    2018
    Cobra Kai (2022) Temporada 5 NF WEB-DL 1080p Latino

    0h 30m 2018

    Descargar Cobra Kai (2022) Temporada 5 NF WEB-DL 1080p Latino. Cobra Kai tiene lugar treinta y cuatro...

    Director: Josh Heald

    Género: Action & Adventure

    Actores: Xolo Mariduena

  • Cobra Kai (2019) Temporada 02 Full HD 1080p Latino

    Cobra Kai (2019) Temporada 02 Full HD 1080p Latino

    2018
    Cobra Kai (2019) Temporada 02 Full HD 1080p Latino

    0h 30m 2018

    Descargar Cobra Kai (2019) Temporada 02 Full HD 1080p Latino. La segunda temporada continúa con la lucha...

    Director: Josh Heald

    Género: Action & Adventure

    Actores: Xolo Mariduena

descargar Mi Novio Falso (2022) AMZN Web-DL 1080p Latino WEBDL 1080p gratis, Mi Novio Falso (2022) AMZN Web-DL 1080p Latino WEBDL mega 1 link, Mi Novio Falso (2022) AMZN Web-DL 1080p Latino WEBDL pelicula completa, descargar Mi Novio Falso (2022) AMZN Web-DL 1080p Latino WEBDL gratis en mega.

Mi Novio Falso (2022) AMZN Web-DL 1080p Latino pelicula full hd, Mi Novio Falso (2022) AMZN Web-DL 1080p Latino mega latino, Mi Novio Falso (2022) AMZN Web-DL 1080p Latino 4k latino, Mi Novio Falso (2022) AMZN Web-DL 1080p Latino pelicula completa, Mi Novio Falso (2022) AMZN Web-DL 1080p Latino descargar gratis, descargar Mi Novio Falso (2022) AMZN Web-DL 1080p Latino pelicula latino, Mi Novio Falso (2022) AMZN Web-DL 1080p Latino 1 link mega, Mi Novio Falso (2022) AMZN Web-DL 1080p Latino 1 link google drive, Mi Novio Falso (2022) AMZN Web-DL 1080p Latino hd 1080p latino.
Comentarios 0