×

¿Problemas para descargar con Mozilla, EDGE? Deshabilita la opción "Abrir vinculos en una pestaña nueva" tal como lo muestra ésta imagen.

Mi gran amiga Ana Frank (2021) HD 1080p Latino

316 vistas

Información de Mi gran amiga Ana Frank (2021) HD 1080p Latino

Datos de la película

  • Calidad: 1080p
  • Audio: Se especifica abajo de la Sinopsis
  • Subtitulos: Español Latino SRT- FORZADOS SRT
  • Resolución: 1920x804p
  • Formato: MKV
  • Codec: H.264
  • Encoder: Melkor
  • Mediainfo: Clic para Mostrar Datos Ver
  • Mi mejor amiga, Anna Frank (2021) HD 1080p Latino.mkv
    Format                      : Matroska
    Format version              : Version 4
    File size                   : 3.53 GiB
    Duration                    : 1 h 42 min
    Overall bit rate            : 4 948 kb/s
    Movie name                  : My Best Friend Anne Frank (2021) [Mijn beste vriendin Anne Frank] CinemaniaHDD.Net
    Encoded date                : UTC 2022-02-11 03:20:00
    Writing application         : mkvmerge v56.1.0 ('My Friend') 64-bit
    Writing library             : libebml v1.4.2 + libmatroska v1.6.4
    Attachments                 : CINEMANIAHD.png

    Video
    ID                          : 1
    Format                      : AVC
    Format/Info                 : Advanced Video Codec
    Format profile              : High@L4.1
    Format settings             : CABAC / 5 Ref Frames
    Format settings, CABAC      : Yes
    Format settings, Reference  : 5 frames
    Codec ID                    : V_MPEG4/ISO/AVC
    Duration                    : 1 h 42 min
    Bit rate                    : 3 858 kb/s
    Width                       : 1 920 pixels
    Height                      : 804 pixels
    Display aspect ratio        : 2.40:1
    Frame rate mode             : Constant
    Frame rate                  : 24.000 FPS
    Color space                 : YUV
    Chroma subsampling          : 4:2:0
    Bit depth                   : 8 bits
    Scan type                   : Progressive
    Bits/(Pixel*Frame)          : 0.104
    Stream size                 : 2.75 GiB (78%)
    Title                       : HD1080p [CinemaniaHDD]
    Writing library             : x264 core 163 r3059 b684ebe0
    Encoding settings           : cabac=1 / ref=5 / deblock=1:-1:-1 / analyse=0x3:0x133 / me=umh / subme=9 / psy=1 / psy_rd=1.00:0.15 / mixed_ref=1 / me_range=16 / chroma_me=1 / trellis=2 / 8x8dct=1 / cqm=0 / deadzone=21,11 / fast_pskip=1 / chroma_qp_offset=-3 / threads=24 / lookahead_threads=2 / sliced_threads=0 / nr=0 / decimate=1 / interlaced=0 / bluray_compat=0 / constrained_intra=0 / bframes=3 / b_pyramid=2 / b_adapt=2 / b_bias=0 / direct=3 / weightb=1 / open_gop=0 / weightp=2 / keyint=240 / keyint_min=24 / scenecut=40 / intra_refresh=0 / rc_lookahead=60 / rc=crf / mbtree=1 / crf=21.0 / qcomp=0.60 / qpmin=0 / qpmax=69 / qpstep=4 / vbv_maxrate=62500 / vbv_bufsize=78125 / crf_max=0.0 / nal_hrd=none / filler=0 / ip_ratio=1.40 / aq=1:1.00
    Default                     : Yes
    Forced                      : Yes
    Color range                 : Limited
    Color primaries             : BT.709
    Transfer characteristics    : BT.709
    Matrix coefficients         : BT.709

    Audio #1
    ID                          : 2
    Format                      : AC-3
    Format/Info                 : Audio Coding 3
    Commercial name             : Dolby Digital
    Codec ID                    : A_AC3
    Duration                    : 1 h 42 min
    Bit rate mode               : Constant
    Bit rate                    : 640 kb/s
    Channel(s)                  : 6 channels
    Channel layout              : L R C LFE Ls Rs
    Sampling rate               : 48.0 kHz
    Frame rate                  : 31.250 FPS (1536 SPF)
    Compression mode            : Lossy
    Delay relative to video     : -5 ms
    Stream size                 : 468 MiB (13%)
    Title                       : Español Latino [CinemaniaHDD]
    Language                    : Spanish
    Service kind                : Complete Main
    Default                     : Yes
    Forced                      : Yes

    Audio #2
    ID                          : 3
    Format                      : AC-3
    Format/Info                 : Audio Coding 3
    Commercial name             : Dolby Digital
    Codec ID                    : A_AC3
    Duration                    : 1 h 42 min
    Bit rate mode               : Constant
    Bit rate                    : 448 kb/s
    Channel(s)                  : 6 channels
    Channel layout              : L R C LFE Ls Rs
    Sampling rate               : 48.0 kHz
    Frame rate                  : 31.250 FPS (1536 SPF)
    Compression mode            : Lossy
    Delay relative to video     : -5 ms
    Stream size                 : 327 MiB (9%)
    Title                       : Neerlandes [CinemaniaHDD]
    Language                    : Dutch
    Service kind                : Complete Main
    Default                     : No
    Forced                      : No

    Text #1
    ID                          : 4
    Format                      : UTF-8
    Codec ID                    : S_TEXT/UTF8
    Codec ID/Info               : UTF-8 Plain Text
    Duration                    : 1 h 41 min
    Bit rate                    : 11 b/s
    Count of elements           : 289
    Stream size                 : 8.46 KiB (0%)
    Title                       : Forzados-SRT [CinemaniaHDD]
    Language                    : Spanish
    Default                     : Yes
    Forced                      : Yes

    Text #2
    ID                          : 5
    Format                      : UTF-8
    Codec ID                    : S_TEXT/UTF8
    Codec ID/Info               : UTF-8 Plain Text
    Duration                    : 1 h 41 min
    Bit rate                    : 30 b/s
    Count of elements           : 823
    Stream size                 : 22.6 KiB (0%)
    Title                       : Español-SRT [CinemaniaHDD]
    Language                    : Spanish
    Default                     : No
    Forced                      : No

    Text #3
    ID                          : 6
    Format                      : UTF-8
    Codec ID                    : S_TEXT/UTF8
    Codec ID/Info               : UTF-8 Plain Text
    Duration                    : 1 h 36 min
    Bit rate                    : 47 b/s
    Count of elements           : 1078
    Stream size                 : 33.3 KiB (0%)
    Title                       : Ingles-SRT [CinemaniaHDD]
    Language                    : English
    Default                     : No
    Forced                      : No

    Menu
    00:00:00.000                : Chapter 01
    00:16:41.042                : Chapter 02
    00:37:38.333                : Chapter 03
    00:55:28.125                : Chapter 04
    01:09:01.667                : Chapter 05
    01:21:15.000                : Chapter 06
    01:37:17.333                : Chapter 07
    Mi mejor amiga, Anna Frank (2021) BDRip 1080p Latino[CMHDD].mkv
    File size                   : 14.3 GiB
    Duration                    : 1 h 42 min
    Movie name                  : My Best Friend Anne Frank (2021) [Mijn beste vriendin Anne Frank] CinemaniaHDD.Net
    Video
    Format                      : AVC x264 High@L4.1
    Bit rate                    : 17.0 Mb/s
    Width                       : 1 920 pixels
    Height                      : 804 pixels
    Frame rate                  : 24.000 FPS
    Audio #1
    Format                      : AC-3
    Bit rate                    : 640 kb/s
    Channel(s)                  : 6 channels
    Sampling rate               : 48.0 kHz
    Title                       : Español Latino AC3 [CinemaniaHDD]
    Language                    : Spanish
    Audio #2
    Format                      : E-AC-3
    Bit rate                    : 640 kb/s
    Channel(s)                  : 6 channels
    Sampling rate               : 48.0 kHz
    Title                       : Español Latino EAC3 [CinemaniaHDD]
    Language                    : Spanish
    Audio #3
    Format                      : AC-3
    Bit rate                    : 640 kb/s
    Channel(s)                  : 6 channels
    Sampling rate               : 48.0 kHz
    Title                       : Neerlandes AC3 [CinemaniaHDD]
    Language                    : Dutch
    Audio #4
    Format                      : E-AC-3
    Bit rate                    : 1 024 kb/s
    Channel(s)                  : 6 channels
    Sampling rate               : 48.0 kHz
    Title                       : Neerlandes EAC3 [CinemaniaHDD]
    Language                    : Dutch
    Subtitulos: Forzados-SRT, Español-SRT, Ingles-SRT

  • Peso: 3.53 GiB | 14.3 GiB

Sinopsis

Descargar Mi gran amiga Ana Frank (2021) HD 1080p Latino. Basada en la amistad real entre Ana Frank y Hannah Goslar: desde el Ámsterdam ocupado por los nazis hasta su desgarrador reencuentro en un campo de concentración.

Español Latino EAC3 & AC3 5.1 – Neerlandés EAC3 & AC3 5.1

Nota: Version Ligera & Pesada!!!

Ficha técnica

Video trailer de la película

Enlaces de descarga

Rip de Bluray

Descargar Mi gran amiga Ana Frank (2021) HD 1080p Latino




Aportes de DPeliculasHDmega la pass es:dpeliculashdmega.org Aportes de CinemaniaHD la pass es:cinemaniahdd.com
Guardado en : Bélica , Drama , HD 1080p , Historia

Películas relacionadas

descargar Mi gran amiga Ana Frank (2021) HD 1080p Latino 1080p 1080p gratis, Mi gran amiga Ana Frank (2021) HD 1080p Latino 1080p mega 1 link, Mi gran amiga Ana Frank (2021) HD 1080p Latino 1080p pelicula completa, descargar Mi gran amiga Ana Frank (2021) HD 1080p Latino 1080p gratis en mega.

Mi gran amiga Ana Frank (2021) HD 1080p Latino pelicula full hd, Mi gran amiga Ana Frank (2021) HD 1080p Latino mega latino, Mi gran amiga Ana Frank (2021) HD 1080p Latino 4k latino, Mi gran amiga Ana Frank (2021) HD 1080p Latino pelicula completa, Mi gran amiga Ana Frank (2021) HD 1080p Latino descargar gratis, descargar Mi gran amiga Ana Frank (2021) HD 1080p Latino pelicula latino, Mi gran amiga Ana Frank (2021) HD 1080p Latino 1 link mega, Mi gran amiga Ana Frank (2021) HD 1080p Latino 1 link google drive, Mi gran amiga Ana Frank (2021) HD 1080p Latino hd 1080p latino.
Comentarios 0