×

¿Problemas para descargar con Mozilla, EDGE? Deshabilita la opción "Abrir vinculos en una pestaña nueva" tal como lo muestra ésta imagen.

Mi Amigo Enzo (2019) REMUX 1080p Latino

564 vistas

Información de Mi Amigo Enzo (2019) REMUX 1080p Latino

Datos de la película

  • Calidad: Full 1080p
  • Audio: Español Latino AC3 5.1 BLURAY - Ingles DTS-HD Master 7.1 BLURAY
  • Subtitulos: Español Latino PGS - Ingles PGS
  • Resolución: 1920x1080p
  • Formato: MKV
  • Codec: H.264
  • Encoder: CinefiloCool
  • Mediainfo: Clic para Mostrar Datos Ver
  • Mi Amigo Enzo (2019) REMUX 1080p Latino-CMHDD.mkv
    Format                      : Matroska
    Format version              : Version 4
    File size                   : 26.7 GiB
    Duration                    : 1 h 48 min
    Overall bit rate mode       : Variable
    Overall bit rate            : 35.2 Mb/s
    Movie name                  : CinemaniaHDD.Net
    Encoded date                : UTC 2019-11-05 06:14:51
    Writing application         : mkvmerge v38.0.0 ('The Silent Type') 64-bit
    Writing library             : libebml v1.3.9 + libmatroska v1.5.2
    Attachments                 : CINEMANIAHD.png

    Video
    ID                          : 1
    Format                      : AVC
    Format/Info                 : Advanced Video Codec
    Format profile              : High@L4.1
    Format settings             : CABAC / 4 Ref Frames
    Format settings, CABAC      : Yes
    Format settings, ReFrames   : 4 frames
    Codec ID                    : V_MPEG4/ISO/AVC
    Duration                    : 1 h 48 min
    Bit rate mode               : Variable
    Bit rate                    : 29.8 Mb/s
    Maximum bit rate            : 31.0 Mb/s
    Width                       : 1 920 pixels
    Height                      : 1 080 pixels
    Display aspect ratio        : 16:9
    Frame rate mode             : Constant
    Frame rate                  : 23.976 (24000/1001) FPS
    Color space                 : YUV
    Chroma subsampling          : 4:2:0
    Bit depth                   : 8 bits
    Scan type                   : Progressive
    Bits/(Pixel*Frame)          : 0.599
    Stream size                 : 22.6 GiB (85%)
    Title                       : Full HD1080p [REMUX]
    Default                     : Yes
    Forced                      : Yes

    Audio #1
    ID                          : 2
    Format                      : AC-3
    Format/Info                 : Audio Coding 3
    Commercial name             : Dolby Digital
    Codec ID                    : A_AC3
    Duration                    : 1 h 48 min
    Bit rate mode               : Constant
    Bit rate                    : 448 kb/s
    Channel(s)                  : 6 channels
    Channel layout              : L R C LFE Ls Rs
    Sampling rate               : 48.0 kHz
    Frame rate                  : 31.250 FPS (1536 SPF)
    Bit depth                   : 16 bits
    Compression mode            : Lossy
    Stream size                 : 349 MiB (1%)
    Title                       : AC3_5.1_Bluray_Esp
    Language                    : Spanish
    Service kind                : Complete Main
    Default                     : Yes
    Forced                      : Yes

    Audio #2
    ID                          : 3
    Format                      : DTS XLL
    Format/Info                 : Digital Theater Systems
    Commercial name             : DTS-HD Master Audio
    Codec ID                    : A_DTS
    Duration                    : 1 h 48 min
    Bit rate mode               : Variable
    Bit rate                    : 4 906 kb/s
    Channel(s)                  : 8 channels
    Channel layout              : C L R LFE Lb Rb Lss Rss
    Sampling rate               : 48.0 kHz
    Frame rate                  : 93.750 FPS (512 SPF)
    Bit depth                   : 24 bits
    Compression mode            : Lossless
    Stream size                 : 3.73 GiB (14%)
    Title                       : DTS-HD_7.1_Bluray_Eng
    Language                    : English
    Default                     : No
    Forced                      : No

    Text #1
    ID                          : 4
    Format                      : PGS
    Muxing mode                 : zlib
    Codec ID                    : S_HDMV/PGS
    Codec ID/Info               : Picture based subtitle format used on BDs/HD-DVDs
    Duration                    : 25 min 17 s
    Bit rate                    : 454 b/s
    Count of elements           : 4
    Stream size                 : 84.1 KiB (0%)
    Title                       : Sub_Forzados [PGS]
    Language                    : Spanish
    Default                     : Yes
    Forced                      : Yes

    Text #2
    ID                          : 5
    Format                      : PGS
    Muxing mode                 : zlib
    Codec ID                    : S_HDMV/PGS
    Codec ID/Info               : Picture based subtitle format used on BDs/HD-DVDs
    Duration                    : 1 h 48 min
    Bit rate                    : 64.4 kb/s
    Count of elements           : 2742
    Stream size                 : 49.9 MiB (0%)
    Title                       : Sub_Esp [PGS]
    Language                    : Spanish
    Default                     : No
    Forced                      : No

    Text #3
    ID                          : 6
    Format                      : PGS
    Muxing mode                 : zlib
    Codec ID                    : S_HDMV/PGS
    Codec ID/Info               : Picture based subtitle format used on BDs/HD-DVDs
    Duration                    : 1 h 48 min
    Bit rate                    : 88.3 kb/s
    Count of elements           : 3534
    Stream size                 : 68.4 MiB (0%)
    Title                       : Sub_Eng [PGS]
    Language                    : English
    Default                     : No
    Forced                      : No

    Text #4
    ID                          : 7
    Format                      : UTF-8
    Codec ID                    : S_TEXT/UTF8
    Codec ID/Info               : UTF-8 Plain Text
    Duration                    : 1 h 40 min
    Bit rate                    : 65 b/s
    Count of elements           : 1370
    Stream size                 : 48.8 KiB (0%)
    Title                       : Sub_Esp
    Language                    : Spanish
    Default                     : No
    Forced                      : No

    Menu
    00:00:00.000                : en:Chapter 01
    00:04:51.582                : en:Chapter 02
    00:10:34.884                : en:Chapter 03
    00:13:59.588                : en:Chapter 04
    00:17:26.712                : en:Chapter 05
    00:20:54.920                : en:Chapter 06
    00:26:08.733                : en:Chapter 07
    00:31:05.530                : en:Chapter 08
    00:36:22.680                : en:Chapter 09
    00:39:37.416                : en:Chapter 10
    00:43:47.291                : en:Chapter 11
    00:48:57.142                : en:Chapter 12
    00:54:02.739                : en:Chapter 13
    00:59:17.428                : en:Chapter 14
    01:03:59.126                : en:Chapter 15
    01:07:27.501                : en:Chapter 16
    01:10:49.078                : en:Chapter 17
    01:14:47.858                : en:Chapter 18
    01:18:46.513                : en:Chapter 19
    01:25:06.851                : en:Chapter 20
    01:28:34.600                : en:Chapter 21
    01:32:43.766                : en:Chapter 22
    01:36:29.950                : en:Chapter 23
    01:41:27.539                : en:Chapter 24

  • Peso: 26.7 GiB

Sinopsis

Descargar Mi Amigo Enzo (2019) REMUX 1080p Latino. El argumento está basado en la novela publicada por Garth Stein, la cual responde al mismo nombre que el filme. La historia combina diferentes sentimientos y situaciones comprometidas para la sociedad como son el dolor, la liberación, el cariño o el riesgo. Enzo, un perro que ha experimentado muchas aventuras interesantes a lo largo de su vida, es el personaje que pone voz a la película. Pese a no ser una persona de carne y hueso, este entrañable animal será capaz de dar diferentes lecciones a los seres humanos sobre cuál tendría que ser la manera adecuada de actuar sea cual sea la situación en la que se encuentren.

Ficha técnica

Video trailer de la película

Enlaces de descarga

Rip de Bluray

Descargar Mi Amigo Enzo (2019) REMUX 1080p Latino




Aportes de DPeliculasHDmega la pass es:dpeliculashdmega.org Aportes de CinemaniaHD la pass es:cinemaniahdd.com
Guardado en : Comedia , Drama , Remux , Romance

Películas relacionadas

  • Mi amigo el dragón (2016) REMUX 1080p Latino

    Mi amigo el dragón (2016) REMUX 1080p Latino

    2016
    Mi amigo el dragón (2016) REMUX 1080p Latino

    1h 43m 2016

    Descargar Mi amigo el dragón (2016) REMUX 1080p Latino. Durante años el Sr. Meacham, un viejo tallador...

    Director: Joe Nolan

    Género: Aventura

    Actores: William J. Rawbone

  • El discurso del Rey (2010) 1080p Latino

    El discurso del Rey (2010) 1080p Latino

    2010
    El discurso del Rey (2010) 1080p Latino

    1h 58m 2010

    Descargar El discurso del Rey (2010) 1080p Latino. El duque de York se convirtió en rey de Gran Bretaña...

    Director: Tom Hooper

    Género: Drama

    Actores: Tony Earnshaw

  • El discurso del Rey (2010) Full HD 1080p Latino

    El discurso del Rey (2010) Full HD 1080p Latino

    2010
    El discurso del Rey (2010) Full HD 1080p Latino

    1h 58m 2010

    Descargar El discurso del Rey (2010) Full HD 1080p Latino. El duque de York se convirtió en rey de Gran...

    Director: Tom Hooper

    Género: Drama

    Actores: Tony Earnshaw

  • El discurso del Rey (2010) REMUX 1080p Latino

    El discurso del Rey (2010) REMUX 1080p Latino

    2010
    El discurso del Rey (2010) REMUX 1080p Latino

    1h 58m 2010

    Descargar El discurso del Rey (2010) REMUX 1080p Latino. El duque de York se convirtió en rey de Gran...

    Director: Tom Hooper

    Género: Drama

    Actores: Tony Earnshaw

descargar Mi Amigo Enzo (2019) REMUX 1080p Latino Full 1080p 1080p gratis, Mi Amigo Enzo (2019) REMUX 1080p Latino Full 1080p mega 1 link, Mi Amigo Enzo (2019) REMUX 1080p Latino Full 1080p pelicula completa, descargar Mi Amigo Enzo (2019) REMUX 1080p Latino Full 1080p gratis en mega.

Mi Amigo Enzo (2019) REMUX 1080p Latino pelicula full hd, Mi Amigo Enzo (2019) REMUX 1080p Latino mega latino, Mi Amigo Enzo (2019) REMUX 1080p Latino 4k latino, Mi Amigo Enzo (2019) REMUX 1080p Latino pelicula completa, Mi Amigo Enzo (2019) REMUX 1080p Latino descargar gratis, descargar Mi Amigo Enzo (2019) REMUX 1080p Latino pelicula latino, Mi Amigo Enzo (2019) REMUX 1080p Latino 1 link mega, Mi Amigo Enzo (2019) REMUX 1080p Latino 1 link google drive, Mi Amigo Enzo (2019) REMUX 1080p Latino hd 1080p latino.
Comentarios 0