×

¿Problemas para descargar con Mozilla, EDGE? Deshabilita la opción "Abrir vinculos en una pestaña nueva" tal como lo muestra ésta imagen.

Mi Amigo Enzo (2019) Full HD 1080p Latino

1.397 vistas

Información de Mi Amigo Enzo (2019) Full HD 1080p Latino

Datos de la película

  • Calidad: Full 1080p
  • Audio: Español Latino AC3 5.1 BLURAY - Ingles DTS 5.1 BLURAY
  • Subtitulos: Español Latino PGS - Ingles PGS
  • Resolución: 1920x1080p
  • Formato: MKV
  • Codec: H.264
  • Encoder: CinefiloCool
  • Mediainfo: Clic para Mostrar Datos Ver
  • Mi Amigo Enzo (2019) Full HD 1080p Latino-CMHDD.mkv
    Format                      : Matroska
    Format version              : Version 4
    File size                   : 5.65 GiB
    Duration                    : 1 h 48 min
    Overall bit rate            : 7 437 kb/s
    Movie name                  : CinemaniaHDD.Net
    Encoded date                : UTC 2019-11-05 06:08:07
    Writing application         : mkvmerge v38.0.0 ('The Silent Type') 64-bit
    Writing library             : libebml v1.3.9 + libmatroska v1.5.2
    Attachments                 : CINEMANIAHD.png

    Video
    ID                          : 1
    Format                      : AVC
    Format/Info                 : Advanced Video Codec
    Format profile              : High@L4.1
    Format settings             : CABAC / 4 Ref Frames
    Format settings, CABAC      : Yes
    Format settings, ReFrames   : 4 frames
    Codec ID                    : V_MPEG4/ISO/AVC
    Duration                    : 1 h 48 min
    Bit rate                    : 5 407 kb/s
    Width                       : 1 920 pixels
    Height                      : 1 080 pixels
    Display aspect ratio        : 16:9
    Frame rate mode             : Constant
    Frame rate                  : 23.976 (24000/1001) FPS
    Color space                 : YUV
    Chroma subsampling          : 4:2:0
    Bit depth                   : 8 bits
    Scan type                   : Progressive
    Bits/(Pixel*Frame)          : 0.109
    Stream size                 : 4.11 GiB (73%)
    Title                       : Full HD1080p [Bluray]
    Writing library             : x264 core 157 r2935 545de2f
    Encoding settings           : cabac=1 / ref=4 / deblock=1:-1:-1 / analyse=0x3:0x133 / me=tesa / subme=11 / psy=1 / psy_rd=1.00:0.15 / mixed_ref=1 / me_range=24 / chroma_me=1 / trellis=2 / 8x8dct=1 / cqm=0 / deadzone=21,11 / fast_pskip=0 / chroma_qp_offset=-3 / threads=34 / lookahead_threads=8 / sliced_threads=0 / nr=0 / decimate=1 / interlaced=0 / bluray_compat=0 / constrained_intra=0 / bframes=16 / b_pyramid=2 / b_adapt=2 / b_bias=0 / direct=3 / weightb=1 / open_gop=0 / weightp=2 / keyint=240 / keyint_min=24 / scenecut=40 / intra_refresh=0 / rc_lookahead=60 / rc=crf / mbtree=1 / crf=20.0 / qcomp=0.60 / qpmin=0 / qpmax=69 / qpstep=4 / vbv_maxrate=62500 / vbv_bufsize=78125 / crf_max=0.0 / nal_hrd=none / filler=0 / ip_ratio=1.40 / aq=1:1.00
    Default                     : Yes
    Forced                      : No
    Color range                 : Limited
    Color primaries             : BT.709
    Transfer characteristics    : BT.709
    Matrix coefficients         : BT.709

    Audio #1
    ID                          : 2
    Format                      : AC-3
    Format/Info                 : Audio Coding 3
    Commercial name             : Dolby Digital
    Codec ID                    : A_AC3
    Duration                    : 1 h 48 min
    Bit rate mode               : Constant
    Bit rate                    : 448 kb/s
    Channel(s)                  : 6 channels
    Channel layout              : L R C LFE Ls Rs
    Sampling rate               : 48.0 kHz
    Frame rate                  : 31.250 FPS (1536 SPF)
    Bit depth                   : 16 bits
    Compression mode            : Lossy
    Stream size                 : 349 MiB (6%)
    Title                       : AC3_5.1_Bluray_Esp
    Language                    : Spanish
    Service kind                : Complete Main
    Default                     : Yes
    Forced                      : Yes

    Audio #2
    ID                          : 3
    Format                      : DTS
    Format/Info                 : Digital Theater Systems
    Codec ID                    : A_DTS
    Duration                    : 1 h 48 min
    Bit rate mode               : Constant
    Bit rate                    : 1 509 kb/s
    Channel(s)                  : 6 channels
    Channel layout              : C L R Ls Rs LFE
    Sampling rate               : 48.0 kHz
    Frame rate                  : 93.750 FPS (512 SPF)
    Bit depth                   : 24 bits
    Compression mode            : Lossy
    Stream size                 : 1.15 GiB (20%)
    Title                       : DTS_5.1_Bluray_Eng
    Language                    : English
    Default                     : No
    Forced                      : No

    Text #1
    ID                          : 4
    Format                      : PGS
    Muxing mode                 : zlib
    Codec ID                    : S_HDMV/PGS
    Codec ID/Info               : Picture based subtitle format used on BDs/HD-DVDs
    Duration                    : 25 min 17 s
    Bit rate                    : 454 b/s
    Count of elements           : 4
    Stream size                 : 84.1 KiB (0%)
    Title                       : Sub_Forzados [PGS]
    Language                    : Spanish
    Default                     : Yes
    Forced                      : Yes

    Text #2
    ID                          : 5
    Format                      : PGS
    Muxing mode                 : zlib
    Codec ID                    : S_HDMV/PGS
    Codec ID/Info               : Picture based subtitle format used on BDs/HD-DVDs
    Duration                    : 1 h 48 min
    Bit rate                    : 64.4 kb/s
    Count of elements           : 2742
    Stream size                 : 49.9 MiB (1%)
    Title                       : Sub_Esp [PGS]
    Language                    : Spanish
    Default                     : No
    Forced                      : No

    Text #3
    ID                          : 6
    Format                      : PGS
    Muxing mode                 : zlib
    Codec ID                    : S_HDMV/PGS
    Codec ID/Info               : Picture based subtitle format used on BDs/HD-DVDs
    Duration                    : 1 h 48 min
    Bit rate                    : 88.3 kb/s
    Count of elements           : 3534
    Stream size                 : 68.4 MiB (1%)
    Title                       : Sub_Eng [PGS]
    Language                    : English
    Default                     : No
    Forced                      : No

    Text #4
    ID                          : 7
    Format                      : UTF-8
    Codec ID                    : S_TEXT/UTF8
    Codec ID/Info               : UTF-8 Plain Text
    Duration                    : 1 h 40 min
    Bit rate                    : 65 b/s
    Count of elements           : 1370
    Stream size                 : 48.8 KiB (0%)
    Title                       : Sub_Esp
    Language                    : Spanish
    Default                     : No
    Forced                      : No

    Menu
    00:00:00.000                : :Chapter 1
    00:04:51.583                : :Chapter 2
    00:10:35.009                : :Chapter 3
    00:13:59.589                : :Chapter 4
    00:17:26.796                : :Chapter 5
    00:20:55.004                : :Chapter 6
    00:26:08.734                : :Chapter 7
    00:31:05.614                : :Chapter 8
    00:36:22.681                : :Chapter 9
    00:39:37.417                : :Chapter 10
    00:43:47.375                : :Chapter 11
    00:48:57.143                : :Chapter 12
    00:54:02.740                : :Chapter 13
    00:59:17.429                : :Chapter 14
    01:03:59.127                : :Chapter 15
    01:07:27.502                : :Chapter 16
    01:10:49.203                : :Chapter 17
    01:14:47.984                : :Chapter 18
    01:18:46.597                : :Chapter 19
    01:25:06.852                : :Chapter 20
    01:28:34.601                : :Chapter 21
    01:32:43.767                : :Chapter 22
    01:36:29.951                : :Chapter 23
    01:41:27.540                : :Chapter 24

  • Peso: 5.65 GiB

Sinopsis

Descargar Mi Amigo Enzo (2019) Full HD 1080p Latino. El argumento está basado en la novela publicada por Garth Stein, la cual responde al mismo nombre que el filme. La historia combina diferentes sentimientos y situaciones comprometidas para la sociedad como son el dolor, la liberación, el cariño o el riesgo. Enzo, un perro que ha experimentado muchas aventuras interesantes a lo largo de su vida, es el personaje que pone voz a la película. Pese a no ser una persona de carne y hueso, este entrañable animal será capaz de dar diferentes lecciones a los seres humanos sobre cuál tendría que ser la manera adecuada de actuar sea cual sea la situación en la que se encuentren.

Ficha técnica

Video trailer de la película

Enlaces de descarga

Rip de Bluray

Descargar Mi Amigo Enzo (2019) Full HD 1080p Latino




Aportes de DPeliculasHDmega la pass es:dpeliculashdmega.org Aportes de CinemaniaHD la pass es:cinemaniahdd.com

Películas relacionadas

  • Shotgun Wedding (2022) AMZN WEB-DL 1080p Latino

    Shotgun Wedding (2022) AMZN WEB-DL 1080p Latino

    2022
    Shotgun Wedding (2022) AMZN WEB-DL 1080p Latino

    1h 41m 2022

    Darcy y Tom reúnen a sus familias para la boda de destino definitiva, pero cuando toman como rehenes...

    Director: Jason Moore

    Género: Acción

    Actores: Steve Coulter

  • M3GAN (2023) AMZN WEB-DL 4K UHD HDR Latino

    M3GAN (2023) AMZN WEB-DL 4K UHD HDR Latino

    2022
    M3GAN (2023) AMZN WEB-DL 4K UHD HDR Latino

    1h 42m 2022

    Descargar M3GAN (2023) AMZN WEB-DL 4K UHD HDR Latino. Cuando Gemma se convierte en la cuidadora de su...

    Director: Stephen W. Moore

    Género: 4K HDR

    Actores: Violet McGraw

  • M3GAN (2022) MA WEB-DL 1080p Latino

    M3GAN (2022) MA WEB-DL 1080p Latino

    2022
    M3GAN (2022) MA WEB-DL 1080p Latino

    1h 42m 2022

    Descargar M3GAN (2022) MA WEB-DL 1080p Latino. Cuando Gemma se convierte en la cuidadora de su sobrina...

    Director: Stephen W. Moore

    Género: Ciencia ficción

    Actores: Violet McGraw

  • Noche sin paz (2022) PLACEBO Full HD 1080p Latino

    Noche sin paz (2022) PLACEBO Full HD 1080p Latino

    2022
    Noche sin paz (2022) PLACEBO Full HD 1080p Latino

    1h 41m 2022

    Descargar Noche sin paz (2022) PLACEBO Full HD 1080p Latino. Cuando un equipo de mercenarios irrumpe...

    Director: Tyshana Hobson

    Género: Acción

    Actores: Yoon Cha-Lee

descargar Mi Amigo Enzo (2019) Full HD 1080p Latino Full 1080p 1080p gratis, Mi Amigo Enzo (2019) Full HD 1080p Latino Full 1080p mega 1 link, Mi Amigo Enzo (2019) Full HD 1080p Latino Full 1080p pelicula completa, descargar Mi Amigo Enzo (2019) Full HD 1080p Latino Full 1080p gratis en mega.

Mi Amigo Enzo (2019) Full HD 1080p Latino pelicula full hd, Mi Amigo Enzo (2019) Full HD 1080p Latino mega latino, Mi Amigo Enzo (2019) Full HD 1080p Latino 4k latino, Mi Amigo Enzo (2019) Full HD 1080p Latino pelicula completa, Mi Amigo Enzo (2019) Full HD 1080p Latino descargar gratis, descargar Mi Amigo Enzo (2019) Full HD 1080p Latino pelicula latino, Mi Amigo Enzo (2019) Full HD 1080p Latino 1 link mega, Mi Amigo Enzo (2019) Full HD 1080p Latino 1 link google drive, Mi Amigo Enzo (2019) Full HD 1080p Latino hd 1080p latino.
Comentarios 0