×

¿Problemas para descargar con Mozilla, EDGE? Deshabilita la opción "Abrir vinculos en una pestaña nueva" tal como lo muestra ésta imagen.

Messiah (2020) Temporada 1 NF WEB-DL 1080p Latino

1.138 vistas

Información de Messiah (2020) Temporada 1 NF WEB-DL 1080p Latino

Datos de la película

  • Calidad: WEBDL
  • Audio: Español Latino AC3 5.1 Netflix - Ingles AC3 5.1 Netflix
  • Subtitulos: Español Latino SRT- FORZADOS SRT
  • Resolución: 1920x1080
  • Formato: MKV
  • Codec: H.264
  • Encoder: cinemaniahdd
  • Mediainfo: Clic para Mostrar Datos Ver
  • Messiah S01E01 NF WEB-DL 1080p Latino.mkv
    Format                      : Matroska
    Format version              : Version 4
    File size                   : 1.68 GiB
    Duration                    : 48 min 55 s
    Overall bit rate mode       : Variable
    Overall bit rate            : 4 904 kb/s
    Movie name                  : Messiah S01E01 - CinemaniaHDD.Net
    Encoded date                : UTC 2020-01-01 21:36:30
    Writing application         : mkvmerge v38.0.0 ('The Silent Type') 64-bit
    Writing library             : libebml v1.3.9 + libmatroska v1.5.2

    Video
    ID                          : 1
    Format                      : AVC
    Format/Info                 : Advanced Video Codec
    Format profile              : High@L4
    Format settings             : CABAC / 4 Ref Frames
    Format settings, CABAC      : Yes
    Format settings, ReFrames   : 4 frames
    Codec ID                    : V_MPEG4/ISO/AVC
    Duration                    : 48 min 54 s
    Bit rate mode               : Variable
    Bit rate                    : 4 135 kb/s
    Maximum bit rate            : 20.0 Mb/s
    Width                       : 1 920 pixels
    Height                      : 1 080 pixels
    Display aspect ratio        : 16:9
    Frame rate mode             : Constant
    Frame rate                  : 23.976 (24000/1001) FPS
    Color space                 : YUV
    Chroma subsampling          : 4:2:0
    Bit depth                   : 8 bits
    Scan type                   : Progressive
    Bits/(Pixel*Frame)          : 0.083
    Stream size                 : 1.41 GiB (84%)
    Title                       : CinemaniaHDD
    Default                     : Yes
    Forced                      : No

    Audio #1
    ID                          : 2
    Format                      : AC-3
    Format/Info                 : Audio Coding 3
    Commercial name             : Dolby Digital
    Codec ID                    : A_AC3
    Duration                    : 48 min 55 s
    Bit rate mode               : Constant
    Bit rate                    : 384 kb/s
    Channel(s)                  : 6 channels
    Channel layout              : L R C LFE Ls Rs
    Sampling rate               : 48.0 kHz
    Frame rate                  : 31.250 FPS (1536 SPF)
    Bit depth                   : 16 bits
    Compression mode            : Lossy
    Stream size                 : 134 MiB (8%)
    Title                       : Español latino [CinemaniaHDD]
    Language                    : Spanish
    Service kind                : Complete Main
    Default                     : Yes
    Forced                      : No

    Audio #2
    ID                          : 3
    Format                      : AC-3
    Format/Info                 : Audio Coding 3
    Commercial name             : Dolby Digital
    Codec ID                    : A_AC3
    Duration                    : 48 min 55 s
    Bit rate mode               : Constant
    Bit rate                    : 384 kb/s
    Channel(s)                  : 6 channels
    Channel layout              : L R C LFE Ls Rs
    Sampling rate               : 48.0 kHz
    Frame rate                  : 31.250 FPS (1536 SPF)
    Bit depth                   : 16 bits
    Compression mode            : Lossy
    Stream size                 : 134 MiB (8%)
    Title                       : Inglés [CinemaniaHDD]
    Language                    : English
    Service kind                : Complete Main
    Default                     : No
    Forced                      : No

    Text #1
    ID                          : 4
    Format                      : UTF-8
    Codec ID                    : S_TEXT/UTF8
    Codec ID/Info               : UTF-8 Plain Text
    Duration                    : 47 min 55 s
    Bit rate                    : 16 b/s
    Count of elements           : 223
    Stream size                 : 5.94 KiB (0%)
    Title                       : Forzados [CinemaniaHDD]
    Language                    : Spanish
    Default                     : Yes
    Forced                      : Yes

    Text #2
    ID                          : 5
    Format                      : UTF-8
    Codec ID                    : S_TEXT/UTF8
    Codec ID/Info               : UTF-8 Plain Text
    Duration                    : 47 min 55 s
    Bit rate                    : 39 b/s
    Count of elements           : 484
    Stream size                 : 14.0 KiB (0%)
    Title                       : Español latino [CinemaniaHDD]
    Language                    : Spanish
    Default                     : No
    Forced                      : No

     

  • Peso: 1.68 GiB C/U

Sinopsis

Un desconfiado oficial de la CIA investiga a un hombre carismático que provoca un movimiento espiritual y suscita inquietud política. Una historia ficticia no basada en hechos reales.

Ficha técnica

Video trailer de la película

Enlaces de descarga

Rip de Bluray

Descargar Messiah (2020) Temporada 1 NF WEB-DL 1080p Latino




Aportes de DPeliculasHDmega la pass es:dpeliculashdmega.org Aportes de CinemaniaHD la pass es:cinemaniahdd.com
Guardado en : Drama , Netflix , Series

Películas relacionadas

descargar Messiah (2020) Temporada 1 NF WEB-DL 1080p Latino WEBDL 1080p gratis, Messiah (2020) Temporada 1 NF WEB-DL 1080p Latino WEBDL mega 1 link, Messiah (2020) Temporada 1 NF WEB-DL 1080p Latino WEBDL serie completa, descargar Messiah (2020) Temporada 1 NF WEB-DL 1080p Latino WEBDL gratis en mega.

Messiah (2020) Temporada 1 NF WEB-DL 1080p Latino pelicula full hd, Messiah (2020) Temporada 1 NF WEB-DL 1080p Latino mega latino, Messiah (2020) Temporada 1 NF WEB-DL 1080p Latino 4k latino, Messiah (2020) Temporada 1 NF WEB-DL 1080p Latino pelicula completa, Messiah (2020) Temporada 1 NF WEB-DL 1080p Latino descargar gratis, descargar Messiah (2020) Temporada 1 NF WEB-DL 1080p Latino pelicula latino, Messiah (2020) Temporada 1 NF WEB-DL 1080p Latino 1 link mega, Messiah (2020) Temporada 1 NF WEB-DL 1080p Latino 1 link google drive, Messiah (2020) Temporada 1 NF WEB-DL 1080p Latino hd 1080p latino.
Comentarios 0