Message from the King (2017) 1080p Latino

873 vistas
1 estrella2 estrellas3 estrellas4 estrellas5 estrellas (Ninguna valoración todavía)
Cargando…

Información de Message from the King (2017) 1080p Latino

Datos de la película

  • Calidad: 1080p
  • Audio: Español Latino AC3 5.1 Netflix - Ingles AC3 5.1 BLURAY
  • Subtitulos: Español Latino SRT - Ingles SRT
  • Resolución: 1920x808p
  • Formato: MKV
  • Codec: H.264
  • Encoder: Dpelis1
  • Mediainfo: Clic para Mostrar Datos Ver
  • Video
    ID                                       : 1
    Format                                   : AVC
    Format/Info                              : Advanced Video Codec
    Format profile                           : [email protected]
    Format settings, CABAC                   : Yes
    Format settings, RefFrames               : 4 frames
    Codec ID                                 : V_MPEG4/ISO/AVC
    Duration                                 : 1 h 42 min
    Bit rate                                 : 3 500 kb/s
    Width                                    : 1 920 pixels
    Height                                   : 808 pixels
    Display aspect ratio                     : 2.40:1
    Frame rate mode                          : Constant
    Frame rate                               : 24.000 FPS
    Color space                              : YUV
    Chroma subsampling                       : 4:2:0
    Bit depth                                : 8 bits
    Scan type                                : Progressive
    Bits/(Pixel*Frame)                       : 0.094
    Stream size                              : 2.40 GiB (78%)
    Writing library                          : x264 core 148 r2708 86b7198
    Encoding settings                        : cabac=1 / ref=3 / deblock=1:0:0 / analyse=0x3:0x113 / me=hex / subme=7 / psy=1 / psy_rd=1.00:0.00 / mixed_ref=1 / me_range=16 / chroma_me=1 / trellis=1 / 8x8dct=1 / cqm=0 / deadzone=21,11 / fast_pskip=1 / chroma_qp_offset=-2 / threads=12 / lookahead_threads=2 / sliced_threads=0 / nr=0 / decimate=1 / interlaced=0 / bluray_compat=0 / constrained_intra=0 / bframes=3 / b_pyramid=2 / b_adapt=1 / b_bias=0 / direct=1 / weightb=1 / open_gop=0 / weightp=2 / keyint=240 / keyint_min=24 / scenecut=40 / intra_refresh=0 / rc_lookahead=40 / rc=abr / mbtree=1 / bitrate=3500 / ratetol=1.0 / qcomp=0.60 / qpmin=0 / qpmax=69 / qpstep=4 / vbv_maxrate=62500 / vbv_bufsize=78125 / nal_hrd=none / filler=0 / ip_ratio=1.40 / aq=1:1.00
    Default                                  : Yes
    Forced                                   : No
    Color range                              : Limited
    Color primaries                          : BT.709
    Transfer characteristics                 : BT.709
    Matrix coefficients                      : BT.709
    Statistics Tags Issue                    : mkvmerge v10.0.0 ('To Drown In You') 64bit 2017-10-03 23:21:21 / mkvmerge v10.0.0 ('To Drown In You') 64bit 2017-10-03 23:21:21 / UTC 2017-10-03T22:02:38Z
    FromStats_BitRate                        : 3437366
    FromStats_Duration                       : 01:42:34.042000000
    FromStats_FrameCount                     : 147697
    FromStats_StreamSize                     : 2644212465

    Audio #1
    ID                                       : 2
    Format                                   : AC-3
    Format/Info                              : Audio Coding 3
    Format settings, Endianness              : Big
    Codec ID                                 : A_AC3
    Duration                                 : 1 h 42 min
    Bit rate mode                            : Constant
    Bit rate                                 : 448 kb/s
    Channel(s)                               : 6 channels
    Channel positions                        : Front: L C R, Side: L R, LFE
    Sampling rate                            : 48.0 kHz
    Frame rate                               : 31.250 FPS (1536 SPF)
    Bit depth                                : 16 bits
    Compression mode                         : Lossy
    Delay relative to video                  : -5 ms
    Stream size                              : 330 MiB (11%)
    Language                                 : Spanish
    Service kind                             : Complete Main
    Default                                  : Yes
    Forced                                   : No
    Statistics Tags Issue                    : mkvmerge v10.0.0 ('To Drown In You') 64bit 2017-10-03 23:21:21 / mkvmerge v10.0.0 ('To Drown In You') 64bit 2017-10-03 23:21:21 / UTC 2017-10-03T22:02:38Z
    FromStats_BitRate                        : 448000
    FromStats_Duration                       : 01:42:57.824000000
    FromStats_FrameCount                     : 193057
    FromStats_StreamSize                     : 345958144

    Audio #2
    ID                                       : 3
    Format                                   : AC-3
    Format/Info                              : Audio Coding 3
    Format settings, Endianness              : Big
    Codec ID                                 : A_AC3
    Duration                                 : 1 h 42 min
    Bit rate mode                            : Constant
    Bit rate                                 : 384 kb/s
    Channel(s)                               : 6 channels
    Channel positions                        : Front: L C R, Side: L R, LFE
    Sampling rate                            : 48.0 kHz
    Frame rate                               : 31.250 FPS (1536 SPF)
    Bit depth                                : 16 bits
    Compression mode                         : Lossy
    Delay relative to video                  : -5 ms
    Stream size                              : 283 MiB (9%)
    Title                                    : Surround
    Language                                 : English
    Service kind                             : Complete Main
    Default                                  : No
    Forced                                   : No
    Statistics Tags Issue                    : mkvmerge v10.0.0 ('To Drown In You') 64bit 2017-10-03 23:21:21 / mkvmerge v10.0.0 ('To Drown In You') 64bit 2017-10-03 23:21:21 / UTC 2017-10-03T22:02:38Z
    FromStats_BitRate                        : 384000
    FromStats_Duration                       : 01:42:34.016000000
    FromStats_FrameCount                     : 192313
    FromStats_StreamSize                     : 295392768

    Text #1
    ID                                       : 4
    Format                                   : UTF-8
    Codec ID                                 : S_TEXT/UTF8
    Codec ID/Info                            : UTF-8 Plain Text
    Default                                  : Yes
    Forced                                   : No
    Statistics Tags Issue                    : mkvmerge v10.0.0 ('To Drown In You') 64bit 2017-10-03 23:21:21 / mkvmerge v10.0.0 ('To Drown In You') 64bit 2017-10-03 23:21:21 / UTC 2017-10-03T22:02:38Z
    FromStats_BitRate                        : 87
    FromStats_Duration                       : 00:00:10.100000000
    FromStats_FrameCount                     : 1
    FromStats_StreamSize                     : 110

    Text #2
    ID                                       : 5
    Format                                   : UTF-8
    Codec ID                                 : S_TEXT/UTF8
    Codec ID/Info                            : UTF-8 Plain Text
    Language                                 : Spanish
    Default                                  : No
    Forced                                   : No
    Statistics Tags Issue                    : mkvmerge v10.0.0 ('To Drown In You') 64bit 2017-10-03 23:21:21 / mkvmerge v10.0.0 ('To Drown In You') 64bit 2017-10-03 23:21:21 / UTC 2017-10-03T22:02:38Z
    FromStats_BitRate                        : 39
    FromStats_Duration                       : 01:32:39.912000000
    FromStats_FrameCount                     : 875
    FromStats_StreamSize                     : 27756

    Text #3
    ID                                       : 6
    Format                                   : UTF-8
    Codec ID                                 : S_TEXT/UTF8
    Codec ID/Info                            : UTF-8 Plain Text
    Language                                 : English
    Default                                  : No
    Forced                                   : No
    Statistics Tags Issue                    : mkvmerge v10.0.0 ('To Drown In You') 64bit 2017-10-03 23:21:21 / mkvmerge v10.0.0 ('To Drown In You') 64bit 2017-10-03 23:21:21 / UTC 2017-10-03T22:02:38Z
    FromStats_BitRate                        : 61
    FromStats_Duration                       : 01:34:06.000000000
    FromStats_FrameCount                     : 1034
    FromStats_StreamSize                     : 43449

    Menu
    00:00:00.000                             : :00:00:00.000
    00:05:55.125                             : :00:05:55.125
    00:17:58.083                             : :00:17:58.083
    00:28:33.958                             : :00:28:33.958
    00:35:39.708                             : :00:35:39.583
    00:44:42.292                             : :00:44:42.292
    00:55:25.042                             : :00:55:25.042
    01:03:00.500                             : :01:03:00.417
    01:10:53.167                             : :01:10:53.167
    01:16:09.375                             : :01:16:09.375
    01:27:44.708                             : :01:27:44.708
    01:34:35.375                             : :01:34:35.375

  • Peso: 3,06 GB

Sinopsis

Descargar gratis Message from the King (2017) 1080p Latino. Narr la histria de un tipo misterioso llamado Jacob King, que llega a Los Ángeles para investigar la desaparición de su hermana y se topa con una macabra trama criminal en los submundos de la ciudad.

Ficha técnica

  • Titulo original: Message from the King
  • Fecha de lanzamiento: 10-05-2017
  • Director: Fabrice Du Welz
  • Género: Suspense
  • Puntuación: 0.0 0 votos
  • Duración:
    1h 42m

Video trailer de la película

Enlaces de descarga

Rip de Bluray

Descargar Message from the King (2017) 1080p Latino




Aportes de DPeliculasHDmega la pass es:dpeliculashdmega.org Aportes de CinemaniaHD la pass es:cinemaniahdd.com
Guardado en : Suspense

Películas relacionadas

  • Hunter Killer (2018) HD 1080p Latino

    2018
    Hunter Killer (2018) HD 1080p Latino

    3.0 2h 2m 2018

    Descargar Hunter Killer (2018) HD 1080p Latino, Mega, Google Drive, Torrent. Un capitán de submarinos...

    Director: Donovan Marsh

    Género: Acción

    Actores: Zane Holtz

  • Close (2019) NF 1080p Latino

    2019
    Close (2019) NF 1080p Latino

    0.0 1h 34m 2019

    A Sam (Rapace), una experta guardaespaldas acostumbrada a territorios en guerra, le asignan un trabajo...

    Director: Vicky Jewson

    Género: Acción

    Actores: Sophie Nélisse

  • Halloween (2018) Full 1080p Latino

    2018
    Halloween (2018) Full 1080p Latino

    4.8 2h 0m 2018

    Descargar Halloween (2018) Full 1080p Latino, Mega, Google Drive, Torrent. Jamie Lee Curtis regresa a...

    Director: David Gordon Green

    Género: FULL 1080p Plateadas

    Actores: Willie Tyrone Ferguson

  • Solo (2018) NF 1080p Español Latino

    2018
    Solo (2018) NF 1080p Español Latino

    0.0 1h 32m 2018

    Tras caer por un acantilado y sufrir importantes heridas, un joven surfista deberá enfrentarse durante...

    Director: Hugo Stuven Casasnovas

    Género: Peliculas Netflix

    Actores: Leticia Etala

  • Frenzy (2018) 1080p Subtitulado

    2018
    Frenzy (2018) 1080p Subtitulado

    0.0 1h 25m 2018

    Descargar Frenzy (2018) 1080p Subtitulado, Mega, Google Drive, Torrent. Paige (Gina Vitori) invita a...

    Director: Jose Montesinos

    Género: HD 1080p

    Actores: Taylor Jorgensen

Comentarios 0