×

¿Problemas para descargar con Mozilla, EDGE? Deshabilita la opción "Abrir vinculos en una pestaña nueva" tal como lo muestra ésta imagen.

Mentiroso, mentiroso (1997) HD Latino – CMHDD

312 vistas

Información de Mentiroso, mentiroso (1997) HD Latino – CMHDD

Datos de la película

  • Calidad: 1080p
  • Audio: Español Latino AC3 5.1 BLURAY - Ingles AC3 5.1 BLURAY
  • Subtitulos: Español Latino SRT- FORZADOS SRT
  • Resolución: 1920x1040p
  • Formato: MKV
  • Codec: H.264
  • Encoder: Dracarys
  • Mediainfo: Clic para Mostrar Datos Ver
  • Format                      : Matroska
    Format version              : Version 4
    File size                   : 2.86 GiB
    Duration                    : 1 h 26 min
    Overall bit rate            : 4 730 kb/s
    Movie name                  : Mentiroso, mentiroso (1997) HD Latino - CMHDD
    Encoded date                : UTC 2020-05-28 00:19:16
    Writing application         : mkvmerge v46.0.0 ('No Deeper Escape') 64-bit
    Writing library             : libebml v1.3.10 + libmatroska v1.5.2

    Video
    ID                          : 1
    Format                      : AVC
    Format/Info                 : Advanced Video Codec
    Format profile              : High@L4.1
    Format settings             : CABAC / 4 Ref Frames
    Format settings, CABAC      : Yes
    Format settings, Reference  : 4 frames
    Codec ID                    : V_MPEG4/ISO/AVC
    Duration                    : 1 h 26 min
    Bit rate                    : 3 500 kb/s
    Width                       : 1 920 pixels
    Height                      : 1 040 pixels
    Display aspect ratio        : 1.85:1
    Frame rate mode             : Constant
    Frame rate                  : 23.976 (24000/1001) FPS
    Color space                 : YUV
    Chroma subsampling          : 4:2:0
    Bit depth                   : 8 bits
    Scan type                   : Progressive
    Bits/(Pixel*Frame)          : 0.073
    Stream size                 : 2.08 GiB (73%)
    Writing library             : x264 core 157 r2935 545de2f
    Encoding settings           : cabac=1 / ref=4 / deblock=1:0:0 / analyse=0x3:0x113 / me=hex / subme=8 / psy=1 / psy_rd=1.00:0.00 / mixed_ref=1 / me_range=16 / chroma_me=1 / trellis=2 / 8x8dct=1 / cqm=0 / deadzone=21,11 / fast_pskip=1 / chroma_qp_offset=-2 / threads=24 / lookahead_threads=4 / sliced_threads=0 / nr=0 / decimate=1 / interlaced=0 / bluray_compat=0 / constrained_intra=0 / bframes=3 / b_pyramid=2 / b_adapt=1 / b_bias=0 / direct=3 / weightb=1 / open_gop=0 / weightp=2 / keyint=240 / keyint_min=24 / scenecut=40 / intra_refresh=0 / rc_lookahead=50 / rc=abr / mbtree=1 / bitrate=3500 / ratetol=1.0 / qcomp=0.60 / qpmin=0 / qpmax=69 / qpstep=4 / vbv_maxrate=62500 / vbv_bufsize=78125 / nal_hrd=none / filler=0 / ip_ratio=1.40 / aq=1:1.00
    Default                     : Yes
    Forced                      : No
    Color range                 : Limited
    Color primaries             : BT.709
    Transfer characteristics    : BT.709
    Matrix coefficients         : BT.709

    Audio #1
    ID                          : 2
    Format                      : AC-3
    Format/Info                 : Audio Coding 3
    Commercial name             : Dolby Digital
    Codec ID                    : A_AC3
    Duration                    : 1 h 26 min
    Bit rate mode               : Constant
    Bit rate                    : 640 kb/s
    Channel(s)                  : 6 channels
    Channel layout              : L R C LFE Ls Rs
    Sampling rate               : 48.0 kHz
    Frame rate                  : 31.250 FPS (1536 SPF)
    Compression mode            : Lossy
    Delay relative to video     : -5 ms
    Stream size                 : 396 MiB (14%)
    Language                    : Spanish
    Service kind                : Complete Main
    Default                     : Yes
    Forced                      : No

    Audio #2
    ID                          : 3
    Format                      : AC-3
    Format/Info                 : Audio Coding 3
    Commercial name             : Dolby Digital
    Codec ID                    : A_AC3
    Duration                    : 1 h 26 min
    Bit rate mode               : Constant
    Bit rate                    : 640 kb/s
    Channel(s)                  : 6 channels
    Channel layout              : L R C LFE Ls Rs
    Sampling rate               : 48.0 kHz
    Frame rate                  : 31.250 FPS (1536 SPF)
    Compression mode            : Lossy
    Delay relative to video     : -5 ms
    Stream size                 : 396 MiB (14%)
    Language                    : English
    Service kind                : Complete Main
    Default                     : No
    Forced                      : No

    Text #1
    ID                          : 4
    Format                      : UTF-8
    Codec ID                    : S_TEXT/UTF8
    Codec ID/Info               : UTF-8 Plain Text
    Duration                    : 50 min 52 s
    Bit rate                    : 0 b/s
    Count of elements           : 3
    Stream size                 : 34.0 Bytes (0%)
    Title                       : SRT-Forzados
    Language                    : Spanish
    Default                     : Yes
    Forced                      : No

    Text #2
    ID                          : 5
    Format                      : UTF-8
    Codec ID                    : S_TEXT/UTF8
    Codec ID/Info               : UTF-8 Plain Text
    Duration                    : 1 h 22 min
    Bit rate                    : 56 b/s
    Count of elements           : 1107
    Stream size                 : 34.1 KiB (0%)
    Title                       : SRT-Completos
    Language                    : Spanish
    Default                     : No
    Forced                      : No

    Menu
    00:00:00.000                : :Chapter 1
    00:13:41.446                : :Chapter 2
    00:18:46.334                : :Chapter 3
    00:20:10.918                : :Chapter 4
    00:22:30.182                : :Chapter 5
    00:26:34.051                : :Chapter 6
    00:32:59.728                : :Chapter 7
    00:38:16.085                : :Chapter 8
    00:41:59.058                : :Chapter 9
    00:45:52.959                : :Chapter 10
    00:49:24.962                : :Chapter 11
    00:53:10.729                : :Chapter 12
    00:57:07.758                : :Chapter 13
    01:11:07.847                : :Chapter 14
    01:16:03.726                : :Chapter 15
    01:20:40.461                : :Chapter 16

  • Peso: 2.86 GiB

Sinopsis

Fletcher Reed (Jim Carrey) es un servidor de la justicia que se atiene a un sólo código ético: la verdad es negociable. Sin permitir que los hechos interfieran con un buen argumento, no tiene rival en cuanto a exagerar y distorsionar la verdad. El es una persona muy convincente y un mentiroso empedernido que se está labrando una prometedora carrera legal representando a los personajes más inmorales de la sociedad, clientes que otros abogados no representan por pura ética. Pero lo que hace de Fletcher un buen abogado es también lo que le convierte en un padre irresponsable. Un día, su hijo Max (Justin Cooper) lo transforma en una persona honrada, y Fletcher descubre que su más preciado tesoro, su boca, de repente se ha convertido en su más grave debilidad.

Ficha técnica

Video trailer de la película

Enlaces de descarga

Rip de Bluray

Descargar Mentiroso, mentiroso (1997) HD Latino – CMHDD




Aportes de DPeliculasHDmega la pass es:dpeliculashdmega.org Aportes de CinemaniaHD la pass es:cinemaniahdd.com
Guardado en : Comedia , HD 1080p

Películas relacionadas

descargar Mentiroso, mentiroso (1997) HD Latino – CMHDD 1080p 1080p gratis, Mentiroso, mentiroso (1997) HD Latino – CMHDD 1080p mega 1 link, Mentiroso, mentiroso (1997) HD Latino – CMHDD 1080p pelicula completa, descargar Mentiroso, mentiroso (1997) HD Latino – CMHDD 1080p gratis en mega.

Mentiroso, mentiroso (1997) HD Latino – CMHDD pelicula full hd, Mentiroso, mentiroso (1997) HD Latino – CMHDD mega latino, Mentiroso, mentiroso (1997) HD Latino – CMHDD 4k latino, Mentiroso, mentiroso (1997) HD Latino – CMHDD pelicula completa, Mentiroso, mentiroso (1997) HD Latino – CMHDD descargar gratis, descargar Mentiroso, mentiroso (1997) HD Latino – CMHDD pelicula latino, Mentiroso, mentiroso (1997) HD Latino – CMHDD 1 link mega, Mentiroso, mentiroso (1997) HD Latino – CMHDD 1 link google drive, Mentiroso, mentiroso (1997) HD Latino – CMHDD hd 1080p latino.
Comentarios 0