×

¿Problemas para descargar con Mozilla, EDGE? Deshabilita la opción "Abrir vinculos en una pestaña nueva" tal como lo muestra ésta imagen.

Hombres de honor (2000) REMUX 1080p Latino-CMHDD

216 vistas

Información de Hombres de honor (2000) REMUX 1080p Latino-CMHDD

Datos de la película

  • Calidad: Full 1080p
  • Audio: Español Latino AC3 5.1 BLURAY - Ingles DTS 5.1 BLURAY
  • Subtitulos: Español Latino PGS - Ingles PGS
  • Resolución: 1920x1080p
  • Formato: MKV
  • Codec: H.264
  • Encoder: CinefiloCool
  • Mediainfo: Clic para Mostrar Datos Ver
  • Hombres De Honor (2000) REMUX 1080p Latino-CMHDD.mkv Format                      : Matroska Format version              : Version 4 File size                   : 19.2 GiB Duration                    : 2 h 8 min Overall bit rate mode       : Variable Overall bit rate            : 21.3 Mb/s Movie name                  : Men of Honor (2000) CinemaniaHDD.Net Encoded date                : UTC 2023-02-06 03:00:35 Writing application         : mkvmerge v56.1.0 ('My Friend') 64-bit Writing library             : libebml v1.4.2 + libmatroska v1.6.4 Attachments                 : CINEMANIAHD.png Video ID                          : 1 Format                      : MPEG Video Format version              : Version 2 Format profile              : Main@High Format settings             : CustomMatrix / BVOP Format settings, BVOP       : Yes Format settings, Matrix     : Custom Format settings, GOP        : M=3, N=12 Codec ID                    : V_MPEG2 Codec ID/Info               : MPEG 1 or 2 Video Duration                    : 2 h 8 min Bit rate mode               : Variable Bit rate                    : 16.9 Mb/s Maximum bit rate            : 39.0 Mb/s Width                       : 1 920 pixels Height                      : 1 080 pixels Display aspect ratio        : 16:9 Frame rate mode             : Constant Frame rate                  : 23.976 (24000/1001) FPS Color space                 : YUV Chroma subsampling          : 4:2:0 Bit depth                   : 8 bits Scan type                   : Progressive Compression mode            : Lossy Bits/(Pixel*Frame)          : 0.340 Time code of first frame    : 00:59:58:00 Time code source            : Group of pictures header GOP, Open/Closed            : Open GOP, Open/Closed of first f : Closed Stream size                 : 15.2 GiB (79%) Title                       : REMUX HD1080p [CinemaniaHDD] Language                    : English Default                     : Yes Forced                      : Yes Audio #1 ID                          : 2 Format                      : AC-3 Format/Info                 : Audio Coding 3 Commercial name             : Dolby Digital Codec ID                    : A_AC3 Duration                    : 2 h 8 min Bit rate mode               : Constant Bit rate                    : 448 kb/s Channel(s)                  : 6 channels Channel layout              : L R C LFE Ls Rs Sampling rate               : 48.0 kHz Frame rate                  : 31.250 FPS (1536 SPF) Compression mode            : Lossy Stream size                 : 413 MiB (2%) Title                       : Español Latino [CinemaniaHDD] Language                    : Spanish Service kind                : Complete Main Default                     : Yes Forced                      : Yes Audio #2 ID                          : 3 Format                      : DTS XLL Format/Info                 : Digital Theater Systems Commercial name             : DTS-HD Master Audio Codec ID                    : A_DTS Duration                    : 2 h 8 min Bit rate mode               : Variable Bit rate                    : 3 918 kb/s Channel(s)                  : 6 channels Channel layout              : C L R Ls Rs LFE Sampling rate               : 48.0 kHz Frame rate                  : 93.750 FPS (512 SPF) Bit depth                   : 24 bits Compression mode            : Lossless Stream size                 : 3.52 GiB (18%) Title                       : Ingles [CinemaniaHDD] Language                    : English Default                     : No Forced                      : No Text #1 ID                          : 4 Format                      : PGS Muxing mode                 : zlib Codec ID                    : S_HDMV/PGS Codec ID/Info               : Picture based subtitle format used on BDs/HD-DVDs Duration                    : 2 h 1 min Bit rate                    : 942 b/s Count of elements           : 44 Stream size                 : 838 KiB (0%) Title                       : Forzados-PGS [CinemaniaHDD] Language                    : Spanish Default                     : No Forced                      : No Text #2 ID                          : 5 Format                      : PGS Muxing mode                 : zlib Codec ID                    : S_HDMV/PGS Codec ID/Info               : Picture based subtitle format used on BDs/HD-DVDs Duration                    : 2 h 1 min Bit rate                    : 44.5 kb/s Count of elements           : 2390 Stream size                 : 38.6 MiB (0%) Title                       : Español-PGS [CinemaniaHDD] Language                    : Spanish Default                     : No Forced                      : No Text #3 ID                          : 6 Format                      : PGS Muxing mode                 : zlib Codec ID                    : S_HDMV/PGS Codec ID/Info               : Picture based subtitle format used on BDs/HD-DVDs Duration                    : 1 h 59 min Bit rate                    : 43.6 kb/s Count of elements           : 2286 Stream size                 : 37.3 MiB (0%) Title                       : Ingles [CinemaniaHDD] Language                    : English Default                     : No Forced                      : No Text #4 ID                          : 7 Format                      : UTF-8 Codec ID                    : S_TEXT/UTF8 Codec ID/Info               : UTF-8 Plain Text Duration                    : 2 h 1 min Bit rate                    : 1 b/s Count of elements           : 28 Stream size                 : 926 Bytes (0%) Title                       : Forzados-SRT [CinemaniaHDD] Language                    : Spanish Default                     : Yes Forced                      : Yes Text #5 ID                          : 8 Format                      : UTF-8 Codec ID                    : S_TEXT/UTF8 Codec ID/Info               : UTF-8 Plain Text Duration                    : 2 h 0 min Bit rate                    : 39 b/s Count of elements           : 1204 Stream size                 : 35.2 KiB (0%) Title                       : Español-SRT [CinemaniaHDD] Language                    : Spanish Default                     : No Forced                      : No Menu 00:00:00.000                : Opening Credits/"Don't End Up Like Me" 00:07:31.534                : Big Future in the U.S. Navy 00:14:51.599                : Master Chief Sunday 00:21:40.298                : "Beware What You Wish for" 00:27:09.668                : Welcoming Bosun's Mate Brashear 00:36:03.286                : Passing the Test 00:42:32.550                : Salvage and Rescue 00:49:09.571                : Bad News 00:54:16.460                : The Bet 01:04:24.944                : Be the Best 01:10:44.365                : Against All Odds 01:19:32.017                : Happy New Years 01:25:00.720                : Missile Rescue 01:31:57.678                : Never Gonna Dive Again 01:41:48.310                : To Be a Master Diver 01:48:11.234                : Trial of Honor 01:55:17.744                : Twelve Steps 02:02:24.337                : End Credits
  • Peso: 19.2 GiB

Sinopsis

Descargar Hombres de honor (2000) REMUX 1080p Latino-CMHDD. La historia de Carl Brashear, un hombre que combatió el racismo y se convirtió en el primer oficial afroamericano de la armada americana. La acción se desarrolla durante más de 30 años, periodo en el que destaca su relación con Billy Sunday , un oficial rebelde de alta graduación y experto buceador que fue degradado por permitir la graduación de Brashear.

Ficha técnica

  • Titulo original: Men of Honor
  • Fecha de lanzamiento: 13-09-2000 (United States of America)
  • Director: George Tillman, Jr.
  • Género: Drama, Remux

Video trailer de la película

Enlaces de descarga

Rip de Bluray

Descargar Hombres de honor (2000) REMUX 1080p Latino-CMHDD


Aportes de DPeliculasHDmega la pass es:dpeliculashdmega.org Aportes de CinemaniaHD la pass es:cinemaniahdd.com Aportes recientes:cinemaniahdd.net
Guardado en : Drama , Remux

Películas relacionadas

descargar Hombres de honor (2000) REMUX 1080p Latino-CMHDD Full 1080p 1080p gratis, Hombres de honor (2000) REMUX 1080p Latino-CMHDD Full 1080p mega 1 link, Hombres de honor (2000) REMUX 1080p Latino-CMHDD Full 1080p pelicula completa, descargar Hombres de honor (2000) REMUX 1080p Latino-CMHDD Full 1080p gratis en mega.

Hombres de honor (2000) REMUX 1080p Latino-CMHDD pelicula full hd, Hombres de honor (2000) REMUX 1080p Latino-CMHDD mega latino, Hombres de honor (2000) REMUX 1080p Latino-CMHDD 4k latino, Hombres de honor (2000) REMUX 1080p Latino-CMHDD pelicula completa, Hombres de honor (2000) REMUX 1080p Latino-CMHDD descargar gratis, descargar Hombres de honor (2000) REMUX 1080p Latino-CMHDD pelicula latino, Hombres de honor (2000) REMUX 1080p Latino-CMHDD 1 link mega, Hombres de honor (2000) REMUX 1080p Latino-CMHDD 1 link google drive, Hombres de honor (2000) REMUX 1080p Latino-CMHDD hd 1080p latino.
Comentarios 0