×

¿Problemas para descargar con Mozilla, EDGE? Deshabilita la opción "Abrir vinculos en una pestaña nueva" tal como lo muestra ésta imagen.

Hombres de honor (2000) OPEN MATTE Web-DL 1080p Latino

467 vistas

Información de Hombres de honor (2000) OPEN MATTE Web-DL 1080p Latino

Datos de la película

  • Calidad: WEBDL
  • Audio: Se especifica abajo de la Sinopsis
  • Subtitulos: Español Latino SRT - Ingles SRT
  • Resolución: 1920x1080p
  • Formato: MKV
  • Codec: H.264
  • Encoder: CinefiloCool
  • Mediainfo: Clic para Mostrar Datos Ver
  • Hombres De Honor (2000) OPEN MATTE Web 1080p Latino-CMHDD.mkv Format                      : Matroska Format version              : Version 4 File size                   : 11.0 GiB Duration                    : 2 h 8 min Overall bit rate            : 12.2 Mb/s Movie name                  : Men of Honor (2000) CinemaniaHDD.Net Encoded date                : UTC 2023-02-07 01:07:26 Writing application         : mkvmerge v56.1.0 ('My Friend') 64-bit Writing library             : libebml v1.4.2 + libmatroska v1.6.4 Attachments                 : CINEMANIAHD.png Video ID                          : 1 Format                      : AVC Format/Info                 : Advanced Video Codec Format profile              : High@L4 Format settings             : CABAC / 4 Ref Frames Format settings, CABAC      : Yes Format settings, Reference  : 4 frames Codec ID                    : V_MPEG4/ISO/AVC Duration                    : 2 h 8 min Bit rate                    : 11.1 Mb/s Width                       : 1 920 pixels Height                      : 1 080 pixels Display aspect ratio        : 16:9 Frame rate mode             : Constant Frame rate                  : 23.976 (24000/1001) FPS Color space                 : YUV Chroma subsampling          : 4:2:0 Bit depth                   : 8 bits Scan type                   : Progressive Bits/(Pixel*Frame)          : 0.223 Stream size                 : 9.99 GiB (91%) Title                       : Web Open Matte [CinemaniaHDD] Default                     : Yes Forced                      : Yes Color range                 : Limited Color primaries             : BT.709 Transfer characteristics    : BT.709 Matrix coefficients         : BT.709 Audio #1 ID                          : 2 Format                      : AC-3 Format/Info                 : Audio Coding 3 Commercial name             : Dolby Digital Codec ID                    : A_AC3 Duration                    : 2 h 8 min Bit rate mode               : Constant Bit rate                    : 448 kb/s Channel(s)                  : 6 channels Channel layout              : L R C LFE Ls Rs Sampling rate               : 48.0 kHz Frame rate                  : 31.250 FPS (1536 SPF) Compression mode            : Lossy Delay relative to video     : 27 ms Stream size                 : 413 MiB (4%) Title                       : Español Latino [CinemaniaHDD] Language                    : Spanish Service kind                : Complete Main Default                     : Yes Forced                      : Yes Audio #2 ID                          : 3 Format                      : E-AC-3 Format/Info                 : Enhanced AC-3 Commercial name             : Dolby Digital Plus Codec ID                    : A_EAC3 Duration                    : 2 h 8 min Bit rate mode               : Constant Bit rate                    : 640 kb/s Channel(s)                  : 6 channels Channel layout              : L R C LFE Ls Rs Sampling rate               : 48.0 kHz Frame rate                  : 31.250 FPS (1536 SPF) Compression mode            : Lossy Stream size                 : 590 MiB (5%) Title                       : Ingles [CinemaniaHDD] Language                    : English Service kind                : Complete Main Default                     : No Forced                      : No Text #1 ID                          : 4 Format                      : UTF-8 Codec ID                    : S_TEXT/UTF8 Codec ID/Info               : UTF-8 Plain Text Duration                    : 2 h 1 min Bit rate                    : 1 b/s Count of elements           : 28 Stream size                 : 926 Bytes (0%) Title                       : Forzados-SRT [CinemaniaHDD] Language                    : Spanish Default                     : Yes Forced                      : Yes Text #2 ID                          : 5 Format                      : UTF-8 Codec ID                    : S_TEXT/UTF8 Codec ID/Info               : UTF-8 Plain Text Duration                    : 2 h 0 min Bit rate                    : 39 b/s Count of elements           : 1204 Stream size                 : 35.2 KiB (0%) Title                       : Español-SRT [CinemaniaHDD] Language                    : Spanish Default                     : No Forced                      : No Text #3 ID                          : 6 Format                      : UTF-8 Codec ID                    : S_TEXT/UTF8 Codec ID/Info               : UTF-8 Plain Text Duration                    : 1 h 59 min Bit rate                    : 45 b/s Count of elements           : 1141 Stream size                 : 39.7 KiB (0%) Title                       : Ingles-SRT [CinemaniaHDD] Language                    : English Default                     : No Forced                      : No Menu 00:00:00.000                : :00:00:00.000 00:07:31.534                : :00:07:31.534 00:14:51.599                : :00:14:51.599 00:21:40.298                : :00:21:40.298 00:27:09.669                : :00:27:09.669 00:36:03.286                : :00:36:03.286 00:42:32.550                : :00:42:32.550 00:49:09.571                : :00:49:09.571 00:54:16.461                : :00:54:16.461 01:04:24.944                : :01:04:24.944 01:10:44.365                : :01:10:44.365 01:19:32.017                : :01:19:32.017 01:25:00.720                : :01:25:00.720 01:31:57.678                : :01:31:57.678 01:41:48.310                : :01:41:48.310 01:48:11.234                : :01:48:11.234 01:55:17.744                : :01:55:17.744 02:02:24.337                : :02:02:24.337
  • Peso: 11.0 GiB

Sinopsis

Descargar Hombres de honor (2000) OPEN MATTE Web-DL 1080p Latino. La historia de Carl Brashear, un hombre que combatió el racismo y se convirtió en el primer oficial afroamericano de la armada americana. La acción se desarrolla durante más de 30 años, periodo en el que destaca su relación con Billy Sunday , un oficial rebelde de alta graduación y experto buceador que fue degradado por permitir la graduación de Brashear.

Audio Español Latino AC3 5.1 Bluray – Ingles EAC3 5.1 Web-DL

Ficha técnica

Video trailer de la película

Enlaces de descarga

Rip de Bluray

Descargar Hombres de honor (2000) OPEN MATTE Web-DL 1080p Latino




Aportes de DPeliculasHDmega la pass es:dpeliculashdmega.org Aportes de CinemaniaHD la pass es:cinemaniahdd.com Aportes recientes:cinemaniahdd.net
Guardado en : Drama , OPEN MATTE

Películas relacionadas

descargar Hombres de honor (2000) OPEN MATTE Web-DL 1080p Latino WEBDL 1080p gratis, Hombres de honor (2000) OPEN MATTE Web-DL 1080p Latino WEBDL mega 1 link, Hombres de honor (2000) OPEN MATTE Web-DL 1080p Latino WEBDL pelicula completa, descargar Hombres de honor (2000) OPEN MATTE Web-DL 1080p Latino WEBDL gratis en mega.

Hombres de honor (2000) OPEN MATTE Web-DL 1080p Latino pelicula full hd, Hombres de honor (2000) OPEN MATTE Web-DL 1080p Latino mega latino, Hombres de honor (2000) OPEN MATTE Web-DL 1080p Latino 4k latino, Hombres de honor (2000) OPEN MATTE Web-DL 1080p Latino pelicula completa, Hombres de honor (2000) OPEN MATTE Web-DL 1080p Latino descargar gratis, descargar Hombres de honor (2000) OPEN MATTE Web-DL 1080p Latino pelicula latino, Hombres de honor (2000) OPEN MATTE Web-DL 1080p Latino 1 link mega, Hombres de honor (2000) OPEN MATTE Web-DL 1080p Latino 1 link google drive, Hombres de honor (2000) OPEN MATTE Web-DL 1080p Latino hd 1080p latino.
Comentarios 0