×

¿Problemas para descargar con Mozilla, EDGE? Deshabilita la opción "Abrir vinculos en una pestaña nueva" tal como lo muestra ésta imagen.

Men in a hope (2011) REMUX 1080i SUB

1.132 vistas

Información de Men in a hope (2011) REMUX 1080i SUB

Datos de la película

  • Calidad: Full 1080p
  • Audio: Se especifica abajo de la Sinopsis
  • Subtitulos: Español Latino SRT
  • Resolución: 1920x1080i
  • Formato: MKV
  • Codec: H.264
  • Encoder: CinefiloCool
  • Mediainfo: Clic para Mostrar Datos Ver
  • Men In Hope (2011) REMUX 1080i SUB-CMHDD.mkv
    Format                      : Matroska
    Format version              : Version 4
    File size                   : 19.6 GiB
    Duration                    : 1 h 50 min
    Overall bit rate mode       : Variable
    Overall bit rate            : 25.5 Mb/s
    Movie name                  : Muzi v nadeji (2011) [Men In Hope] CinemaniaHDD.Net
    Encoded date                : UTC 2022-02-28 07:59:58
    Writing application         : mkvmerge v56.1.0 ('My Friend') 64-bit
    Writing library             : libebml v1.4.2 + libmatroska v1.6.4
    Attachments                 : CINEMANIAHD.png

    Video
    ID                          : 1
    ID in the original source m : 4113 (0x1011)
    Format                      : AVC
    Format/Info                 : Advanced Video Codec
    Format profile              : High@L4.1
    Format settings             : CABAC / 3 Ref Frames
    Format settings, CABAC      : Yes
    Format settings, Reference  : 3 frames
    Codec ID                    : V_MPEG4/ISO/AVC
    Duration                    : 1 h 50 min
    Bit rate mode               : Variable
    Bit rate                    : 22.0 Mb/s
    Maximum bit rate            : 38.0 Mb/s
    Width                       : 1 920 pixels
    Height                      : 1 080 pixels
    Display aspect ratio        : 16:9
    Frame rate mode             : Constant
    Frame rate                  : 25.000 FPS
    Standard                    : PAL
    Color space                 : YUV
    Chroma subsampling          : 4:2:0
    Bit depth                   : 8 bits
    Scan type                   : MBAFF
    Scan type, store method     : Interleaved fields
    Scan order                  : Top Field First
    Bits/(Pixel*Frame)          : 0.424
    Stream size                 : 16.9 GiB (86%)
    Title                       : REMUX HD1080i [CinemaniaHDD]
    Default                     : Yes
    Forced                      : Yes
    Color range                 : Limited
    Color primaries             : BT.709
    Transfer characteristics    : BT.709
    Matrix coefficients         : BT.709
    Original source medium      : Blu-ray

    Audio
    ID                          : 2
    ID in the original source m : 4352 (0x1100)
    Format                      : DTS XLL
    Format/Info                 : Digital Theater Systems
    Commercial name             : DTS-HD Master Audio
    Codec ID                    : A_DTS
    Duration                    : 1 h 50 min
    Bit rate mode               : Variable
    Bit rate                    : 3 458 kb/s
    Channel(s)                  : 6 channels
    Channel layout              : C L R Ls Rs LFE
    Sampling rate               : 48.0 kHz
    Frame rate                  : 93.750 FPS (512 SPF)
    Bit depth                   : 24 bits
    Compression mode            : Lossless
    Stream size                 : 2.66 GiB (14%)
    Title                       : Checo [CinemaniaHDD]
    Language                    : Czech
    Default                     : Yes
    Forced                      : Yes
    Original source medium      : Blu-ray

    Text #1
    ID                          : 3
    Format                      : UTF-8
    Codec ID                    : S_TEXT/UTF8
    Codec ID/Info               : UTF-8 Plain Text
    Duration                    : 1 h 48 min
    Bit rate                    : 47 b/s
    Count of elements           : 1038
    Stream size                 : 37.6 KiB (0%)
    Title                       : Español Latino-SRT [CinemaniaHDD]
    Language                    : Spanish
    Default                     : Yes
    Forced                      : Yes

    Text #2
    ID                          : 4
    ID in the original source m : 4608 (0x1200)
    Format                      : PGS
    Muxing mode                 : zlib
    Codec ID                    : S_HDMV/PGS
    Codec ID/Info               : Picture based subtitle format used on BDs/HD-DVDs
    Duration                    : 1 h 50 min
    Bit rate                    : 33.5 kb/s
    Count of elements           : 1816
    Stream size                 : 26.4 MiB (0%)
    Title                       : Checo-PGS [CinemaniaHDD]
    Language                    : Czech
    Default                     : No
    Forced                      : No
    Original source medium      : Blu-ray

    Menu
    00:00:00.000                : Chapter 01
    00:07:39.240                : Chapter 02
    00:12:12.640                : Chapter 03
    00:21:18.600                : Chapter 04
    00:31:40.600                : Chapter 05
    00:39:55.080                : Chapter 06
    00:51:33.960                : Chapter 07
    00:59:57.160                : Chapter 08
    01:12:14.520                : Chapter 09
    01:21:18.640                : Chapter 10
    01:29:00.880                : Chapter 11
    01:44:34.920                : Chapter 12

  • Peso: 19.6 GiB

Sinopsis

Descargar Men in a hope [Muži v naději] (2011) REMUX 1080i SUB. Rudolf está convencido de que la infidelidad es la base para un matrimonio feliz, ya que,después de todo, una mujer no quiere aburrirse con su pareja. Por lo tanto, es mejor mantener su lucha por él.Rudolf, ahora en sus sesenta años, ha aplicado con éxito su teoría salvaje en la práctica cotidiana. Obviamente, él no entiende la inocencia de su yerno Andrew, que trata de ser un marido obediente. Entonces él decide tratar de ayudarlo, después de todo, él es el esposo de su única hija.

Audio Checo DTS-HD 5.1 Bluray
Disponible Solo Para VIP!!!

Nota: El source es un Bluray con barrido entrelazado (1080i)

Ficha técnica

Video trailer de la película

Enlaces de descarga

Rip de Bluray

Descargar Men in a hope (2011) REMUX 1080i SUB


Aportes de DPeliculasHDmega la pass es:dpeliculashdmega.org Aportes de CinemaniaHD la pass es:cinemaniahdd.com
Guardado en : Comedia , Remux , Romance

Películas relacionadas

  • Jaula Mental (2022) REMUX 1080p Latino

    Jaula Mental (2022) REMUX 1080p Latino

    2022
    Jaula Mental (2022) REMUX 1080p Latino

    1h 47m 2022

    Descargar Jaula Mental (2022) REMUX 1080p Latino. Cuando un asesino que imita otros crímenes comienza...

    Director: Mauro Borrelli

    Género: Crimen

    Actores: Victoria Fox

  • Transfusion (2023) REMUX 1080p Latino

    Transfusion (2023) REMUX 1080p Latino

    2023
    Transfusion (2023) REMUX 1080p Latino

    1h 45m 2023

    Descargar Transfusion (2023) REMUX 1080p Latino. Un antiguo agente de las Fuerzas Especiales se ve empujado...

    Director: Matt Nable

    Género: Crimen

    Actores: Trystan Go

  • Gladiador (2000) EXTENDED CUT 1080p Latino

    Gladiador (2000) EXTENDED CUT 1080p Latino

    2000
    Gladiador (2000) EXTENDED CUT 1080p Latino

    2h 35m 2000

    Gladiador (2000) EXTENDED CUT 1080p Latino. Máximo, General de las Legiones Romanas, es querido por...

    Director: Ridley Scott

    Género: Acción

    Actores: Tony Curran

  • Mi amigo el dragón (2016) REMUX 1080p Latino

    Mi amigo el dragón (2016) REMUX 1080p Latino

    2016
    Mi amigo el dragón (2016) REMUX 1080p Latino

    1h 43m 2016

    Descargar Mi amigo el dragón (2016) REMUX 1080p Latino. Durante años el Sr. Meacham, un viejo tallador...

    Director: Joe Nolan

    Género: Aventura

    Actores: William J. Rawbone

  • El discurso del Rey (2010) REMUX 1080p Latino

    El discurso del Rey (2010) REMUX 1080p Latino

    2010
    El discurso del Rey (2010) REMUX 1080p Latino

    1h 58m 2010

    Descargar El discurso del Rey (2010) REMUX 1080p Latino. El duque de York se convirtió en rey de Gran...

    Director: Tom Hooper

    Género: Drama

    Actores: Tony Earnshaw

descargar Men in a hope (2011) REMUX 1080i SUB Full 1080p 1080p gratis, Men in a hope (2011) REMUX 1080i SUB Full 1080p mega 1 link, Men in a hope (2011) REMUX 1080i SUB Full 1080p pelicula completa, descargar Men in a hope (2011) REMUX 1080i SUB Full 1080p gratis en mega.

Men in a hope (2011) REMUX 1080i SUB pelicula full hd, Men in a hope (2011) REMUX 1080i SUB mega latino, Men in a hope (2011) REMUX 1080i SUB 4k latino, Men in a hope (2011) REMUX 1080i SUB pelicula completa, Men in a hope (2011) REMUX 1080i SUB descargar gratis, descargar Men in a hope (2011) REMUX 1080i SUB pelicula latino, Men in a hope (2011) REMUX 1080i SUB 1 link mega, Men in a hope (2011) REMUX 1080i SUB 1 link google drive, Men in a hope (2011) REMUX 1080i SUB hd 1080p latino.
Comentarios 0