×

¿Problemas para descargar con Mozilla, EDGE? Deshabilita la opción "Abrir vinculos en una pestaña nueva" tal como lo muestra ésta imagen.

Men in a hope (2011) Full HD 1080p SUB

255 vistas

Información de Men in a hope (2011) Full HD 1080p SUB

Datos de la película

  • Calidad: Full 1080p
  • Audio: Se especifica abajo de la Sinopsis
  • Subtitulos: Español Latino SRT
  • Resolución: 1920x1080p
  • Formato: MKV
  • Codec: H.264
  • Encoder: CinefiloCool
  • Mediainfo: Clic para Mostrar Datos Ver
  • Men In Hope (2011) Full HD 1080p SUB-CMHDD.mkv
    Format                      : Matroska
    Format version              : Version 4
    File size                   : 9.52 GiB
    Duration                    : 1 h 50 min
    Overall bit rate            : 12.4 Mb/s
    Movie name                  : Muzi v nadeji (2011) [Men In Hope] CinemaniaHDD.Net
    Encoded date                : UTC 2023-07-04 07:24:04
    Writing application         : mkvmerge v56.1.0 ('My Friend') 64-bit
    Writing library             : libebml v1.4.2 + libmatroska v1.6.4
    Attachments                 : CINEMANIAHD.png

    Video
    ID                          : 1
    Format                      : AVC
    Format/Info                 : Advanced Video Codec
    Format profile              : High@L4.1
    Format settings             : CABAC / 4 Ref Frames
    Format settings, CABAC      : Yes
    Format settings, Reference  : 4 frames
    Codec ID                    : V_MPEG4/ISO/AVC
    Duration                    : 1 h 50 min
    Bit rate                    : 10.8 Mb/s
    Width                       : 1 920 pixels
    Height                      : 1 080 pixels
    Display aspect ratio        : 16:9
    Frame rate mode             : Constant
    Frame rate                  : 25.000 FPS
    Color space                 : YUV
    Chroma subsampling          : 4:2:0
    Bit depth                   : 8 bits
    Scan type                   : Progressive
    Bits/(Pixel*Frame)          : 0.209
    Stream size                 : 8.35 GiB (88%)
    Title                       : Full HD1080p [CinemaniaHDD]
    Writing library             : x264 core 163 r3059 b684ebe0
    Encoding settings           : cabac=1 / ref=4 / deblock=1:0:0 / analyse=0x3:0x133 / me=tesa / subme=11 / psy=1 / psy_rd=1.00:0.00 / mixed_ref=1 / me_range=24 / chroma_me=1 / trellis=2 / 8x8dct=1 / cqm=0 / deadzone=21,11 / fast_pskip=0 / chroma_qp_offset=-2 / threads=24 / lookahead_threads=6 / sliced_threads=0 / nr=0 / decimate=1 / interlaced=0 / bluray_compat=0 / constrained_intra=0 / bframes=16 / b_pyramid=2 / b_adapt=2 / b_bias=0 / direct=3 / weightb=1 / open_gop=0 / weightp=2 / keyint=250 / keyint_min=25 / scenecut=40 / intra_refresh=0 / rc_lookahead=60 / rc=crf / mbtree=1 / crf=20.0 / qcomp=0.60 / qpmin=0 / qpmax=69 / qpstep=4 / vbv_maxrate=62500 / vbv_bufsize=78125 / crf_max=0.0 / nal_hrd=none / filler=0 / ip_ratio=1.40 / aq=1:1.00
    Default                     : Yes
    Forced                      : Yes
    Color range                 : Limited
    Color primaries             : BT.709
    Transfer characteristics    : BT.709
    Matrix coefficients         : BT.709

    Audio
    ID                          : 2
    Format                      : DTS
    Format/Info                 : Digital Theater Systems
    Codec ID                    : A_DTS
    Duration                    : 1 h 50 min
    Bit rate mode               : Constant
    Bit rate                    : 1 509 kb/s
    Channel(s)                  : 6 channels
    Channel layout              : C L R Ls Rs LFE
    Sampling rate               : 48.0 kHz
    Frame rate                  : 93.750 FPS (512 SPF)
    Bit depth                   : 24 bits
    Compression mode            : Lossy
    Stream size                 : 1.16 GiB (12%)
    Title                       : Checo [CinemaniaHDD]
    Language                    : Czech
    Default                     : Yes
    Forced                      : Yes

    Text #1
    ID                          : 3
    Format                      : UTF-8
    Codec ID                    : S_TEXT/UTF8
    Codec ID/Info               : UTF-8 Plain Text
    Duration                    : 1 h 48 min
    Bit rate                    : 47 b/s
    Count of elements           : 1038
    Stream size                 : 37.6 KiB (0%)
    Title                       : Español Latino-SRT [CinemaniaHDD]
    Language                    : Spanish
    Default                     : Yes
    Forced                      : Yes

    Text #2
    ID                          : 4
    ID in the original source m : 4608 (0x1200)
    Format                      : PGS
    Muxing mode                 : zlib
    Codec ID                    : S_HDMV/PGS
    Codec ID/Info               : Picture based subtitle format used on BDs/HD-DVDs
    Duration                    : 1 h 50 min
    Bit rate                    : 33.5 kb/s
    Count of elements           : 1816
    Stream size                 : 26.4 MiB (0%)
    Title                       : Checo-PGS [CinemaniaHDD]
    Language                    : Czech
    Default                     : No
    Forced                      : No
    Original source medium      : Blu-ray

    Menu
    00:00:00.000                : Chapter 01
    00:07:39.240                : Chapter 02
    00:12:12.640                : Chapter 03
    00:21:18.600                : Chapter 04
    00:31:40.600                : Chapter 05
    00:39:55.080                : Chapter 06
    00:51:33.960                : Chapter 07
    00:59:57.160                : Chapter 08
    01:12:14.520                : Chapter 09
    01:21:18.640                : Chapter 10
    01:29:00.880                : Chapter 11
    01:44:34.920                : Chapter 12

  • Peso: 9.52 GiB

Sinopsis

Descargar Men in a hope [Muži v naději] (2011) Full HD 1080p SUB. Rudolf está convencido de que la infidelidad es la base para un matrimonio feliz, ya que,después de todo, una mujer no quiere aburrirse con su pareja. Por lo tanto, es mejor mantener su lucha por él.Rudolf, ahora en sus sesenta años, ha aplicado con éxito su teoría salvaje en la práctica cotidiana. Obviamente, él no entiende la inocencia de su yerno Andrew, que trata de ser un marido obediente. Entonces él decide tratar de ayudarlo, después de todo, él es el esposo de su única hija.

Audio Checo DTS 5.1 Bluray

Ficha técnica

Video trailer de la película

Enlaces de descarga

Rip de Bluray

Descargar Men in a hope (2011) Full HD 1080p SUB




Aportes de DPeliculasHDmega la pass es:dpeliculashdmega.org Aportes de CinemaniaHD la pass es:cinemaniahdd.com Aportes recientes:cinemaniahdd.net

Películas relacionadas

descargar Men in a hope (2011) Full HD 1080p SUB Full 1080p 1080p gratis, Men in a hope (2011) Full HD 1080p SUB Full 1080p mega 1 link, Men in a hope (2011) Full HD 1080p SUB Full 1080p pelicula completa, descargar Men in a hope (2011) Full HD 1080p SUB Full 1080p gratis en mega.

Men in a hope (2011) Full HD 1080p SUB pelicula full hd, Men in a hope (2011) Full HD 1080p SUB mega latino, Men in a hope (2011) Full HD 1080p SUB 4k latino, Men in a hope (2011) Full HD 1080p SUB pelicula completa, Men in a hope (2011) Full HD 1080p SUB descargar gratis, descargar Men in a hope (2011) Full HD 1080p SUB pelicula latino, Men in a hope (2011) Full HD 1080p SUB 1 link mega, Men in a hope (2011) Full HD 1080p SUB 1 link google drive, Men in a hope (2011) Full HD 1080p SUB hd 1080p latino.
Comentarios 0