×

¿Problemas para descargar con Mozilla, EDGE? Deshabilita la opción "Abrir vinculos en una pestaña nueva" tal como lo muestra ésta imagen.

Memoirs of a Geisha (2005) REMUX 1080p Latino – CMHDD

315 vistas

Información de Memoirs of a Geisha (2005) REMUX 1080p Latino – CMHDD

Datos de la película

  • Calidad: Full 1080p
  • Audio: Español Latino AC3 5.1 BLURAY - Ingles DTS 5.1 BLURAY
  • Subtitulos: Español Latino PGS
  • Resolución: 1920x1080p
  • Formato: MKV
  • Codec: H.264
  • Encoder: DRacarys
  • Mediainfo: Clic para Mostrar Datos Ver
  • Format                      : Matroska
    Format version              : Version 4
    File size                   : 27.0 GiB
    Duration                    : 2 h 25 min
    Overall bit rate mode       : Variable
    Overall bit rate            : 26.6 Mb/s
    Movie name                  : Memoirs of a Geisha (2005) REMUX 1080p Latino - CMHDD
    Encoded date                : UTC 2022-06-15 22:39:59
    Writing application         : mkvmerge v17.0.0 ('Be Ur Friend') 64-bit
    Writing library             : libebml v1.3.5 + libmatroska v1.4.8

    Video
    ID                          : 1
    Format                      : AVC
    Format/Info                 : Advanced Video Codec
    Format profile              : High@L4.1
    Format settings             : CABAC / 2 Ref Frames
    Format settings, CABAC      : Yes
    Format settings, Reference  : 2 frames
    Format settings, GOP        : M=1, N=10
    Codec ID                    : V_MPEG4/ISO/AVC
    Duration                    : 2 h 25 min
    Bit rate mode               : Variable
    Bit rate                    : 24.0 Mb/s
    Width                       : 1 920 pixels
    Height                      : 1 080 pixels
    Display aspect ratio        : 16:9
    Frame rate mode             : Constant
    Frame rate                  : 23.976 (24000/1001) FPS
    Color space                 : YUV
    Chroma subsampling          : 4:2:0
    Bit depth                   : 8 bits
    Scan type                   : Progressive
    Bits/(Pixel*Frame)          : 0.483
    Stream size                 : 24.4 GiB (90%)
    Default                     : Yes
    Forced                      : No

    Audio #1
    ID                          : 2
    Format                      : AC-3
    Format/Info                 : Audio Coding 3
    Commercial name             : Dolby Digital
    Codec ID                    : A_AC3
    Duration                    : 2 h 25 min
    Bit rate mode               : Constant
    Bit rate                    : 448 kb/s
    Channel(s)                  : 6 channels
    Channel layout              : L R C LFE Ls Rs
    Sampling rate               : 48.0 kHz
    Frame rate                  : 31.250 FPS (1536 SPF)
    Compression mode            : Lossy
    Stream size                 : 465 MiB (2%)
    Language                    : Spanish
    Service kind                : Complete Main
    Default                     : Yes
    Forced                      : No

    Audio #2
    ID                          : 3
    Format                      : AC-3
    Format/Info                 : Audio Coding 3
    Commercial name             : Dolby Digital
    Codec ID                    : A_AC3
    Duration                    : 2 h 25 min
    Bit rate mode               : Constant
    Bit rate                    : 640 kb/s
    Channel(s)                  : 6 channels
    Channel layout              : L R C LFE Ls Rs
    Sampling rate               : 48.0 kHz
    Frame rate                  : 31.250 FPS (1536 SPF)
    Compression mode            : Lossy
    Stream size                 : 664 MiB (2%)
    Language                    : English
    Service kind                : Complete Main
    Default                     : No
    Forced                      : No

    Audio #3
    ID                          : 4
    Format                      : DTS
    Format/Info                 : Digital Theater Systems
    Codec ID                    : A_DTS
    Duration                    : 2 h 25 min
    Bit rate mode               : Constant
    Bit rate                    : 1 510 kb/s
    Channel(s)                  : 6 channels
    Channel layout              : C L R Ls Rs LFE
    Sampling rate               : 48.0 kHz
    Frame rate                  : 93.750 FPS (512 SPF)
    Bit depth                   : 24 bits
    Compression mode            : Lossy
    Stream size                 : 1.53 GiB (6%)
    Language                    : English
    Default                     : No
    Forced                      : No

    Text
    ID                          : 5
    Format                      : UTF-8
    Codec ID                    : S_TEXT/UTF8
    Codec ID/Info               : UTF-8 Plain Text
    Duration                    : 2 h 16 min
    Bit rate                    : 44 b/s
    Count of elements           : 1423
    Stream size                 : 44.9 KiB (0%)
    Language                    : Spanish
    Default                     : No
    Forced                      : No

    Menu
    00:00:00.000                : en:Chapter 1
    00:09:41.330                : en:Chapter 2
    00:16:40.749                : en:Chapter 3
    00:24:26.756                : en:Chapter 4
    00:35:17.698                : en:Chapter 5
    00:47:27.052                : en:Chapter 6
    00:54:58.003                : en:Chapter 7
    01:02:46.888                : en:Chapter 8
    01:08:06.540                : en:Chapter 9
    01:17:03.035                : en:Chapter 10
    01:27:49.222                : en:Chapter 11
    01:36:56.227                : en:Chapter 12
    01:42:34.273                : en:Chapter 13
    01:53:26.216                : en:Chapter 14
    02:03:25.439                : en:Chapter 15
    02:10:11.136                : en:Chapter 16

  • Peso: 27.0 GiB

Sinopsis

Japón, 1929. Chiyo, una niña de nueve años, es vendida por sus padres para trabajar en la casa de Geishas de Nitta Okiya. Su hermana mayor Satsu no es aceptada y es enviada a un prostíbulo. En la casa Chiyo conoce a Pumpkin, otra niña que va a ser instruida para ser geisha, así como a las famosas geishas Hatsumomo y su rival Mameha. Los comienzos de Chiyo son duros, pero un encuentro con el que será el amor de su vida, el Presidente, hará que desde ese momento sólo desee convertirse en una famosa geisha para estar más cerca de él.

Ficha técnica

  • Titulo original: Memoirs of a Geisha
  • Fecha de lanzamiento: 06-12-2005 (France, Japan, United States of America)
  • Director: Rob Marshall
  • Género: Drama, Historia, Romance

Video trailer de la película

Enlaces de descarga

Rip de Bluray

Descargar Memoirs of a Geisha (2005) REMUX 1080p Latino – CMHDD


Aportes de DPeliculasHDmega la pass es:dpeliculashdmega.org Aportes de CinemaniaHD la pass es:cinemaniahdd.com
Guardado en : Drama , Historia , Romance

Películas relacionadas

  • Emily la criminal (2022) HD 1080p Latino

    Emily la criminal (2022) HD 1080p Latino

    2022
    Emily la criminal (2022) HD 1080p Latino

    1h 37m 2022

    Descargar Emily la criminal (2022) HD 1080p Latino. Emily, que tiene una deuda estudiantil y está excluida...

    Director: John Patton Ford

    Género: Crimen

    Actores: Theo Rossi

  • Emily la criminal (2022) REMUX 1080p Latino

    Emily la criminal (2022) REMUX 1080p Latino

    2022
    Emily la criminal (2022) REMUX 1080p Latino

    1h 37m 2022

    Descargar Emily la criminal (2022) REMUX 1080p Latino. Emily, que tiene una deuda estudiantil y está...

    Director: John Patton Ford

    Género: Crimen

    Actores: Theo Rossi

  • Território Hostil (2022) HD 1080p Latino

    Território Hostil (2022) HD 1080p Latino

    2022
    Território Hostil (2022) HD 1080p Latino

    1h 34m 2022

    Descargar Território Hostil (2022) HD 1080p Latino. En los Estados Unidos posteriores a la guerra civil,...

    Director: Brian Presley

    Género: Drama

    Actores: Natalie Whittle

descargar Memoirs of a Geisha (2005) REMUX 1080p Latino – CMHDD Full 1080p 1080p gratis, Memoirs of a Geisha (2005) REMUX 1080p Latino – CMHDD Full 1080p mega 1 link, Memoirs of a Geisha (2005) REMUX 1080p Latino – CMHDD Full 1080p pelicula completa, descargar Memoirs of a Geisha (2005) REMUX 1080p Latino – CMHDD Full 1080p gratis en mega.

Memoirs of a Geisha (2005) REMUX 1080p Latino – CMHDD pelicula full hd, Memoirs of a Geisha (2005) REMUX 1080p Latino – CMHDD mega latino, Memoirs of a Geisha (2005) REMUX 1080p Latino – CMHDD 4k latino, Memoirs of a Geisha (2005) REMUX 1080p Latino – CMHDD pelicula completa, Memoirs of a Geisha (2005) REMUX 1080p Latino – CMHDD descargar gratis, descargar Memoirs of a Geisha (2005) REMUX 1080p Latino – CMHDD pelicula latino, Memoirs of a Geisha (2005) REMUX 1080p Latino – CMHDD 1 link mega, Memoirs of a Geisha (2005) REMUX 1080p Latino – CMHDD 1 link google drive, Memoirs of a Geisha (2005) REMUX 1080p Latino – CMHDD hd 1080p latino.
Comentarios 0