×

¿Problemas para descargar con Mozilla, EDGE? Deshabilita la opción "Abrir vinculos en una pestaña nueva" tal como lo muestra ésta imagen.

Megalodon 2: El gran abismo (2023) WEB-DL 4K UHD HDR/DV Latino

337 vistas

Información de Megalodon 2: El gran abismo (2023) WEB-DL 4K UHD HDR/DV Latino

Datos de la película

  • Calidad: WEBDL
  • Audio: Español Latino AC3 5.1 WEB-DL - Ingles AC3 5.1 WEB-DL
  • Subtitulos: Español Latino SRT- FORZADOS SRT
  • Resolución: 3840x2160p
  • Formato: MKV
  • Codec: HEVC
  • Encoder: Melkor
  • Mediainfo: Clic para Mostrar Datos Ver
  • Megalodon 2. El gran abismo (2023) WEB UHD HDR-DV Latino.mkv
    Format                      : Matroska
    Format version              : Version 4
    File size                   : 20.4 GiB
    Duration                    : 1 h 55 min
    Overall bit rate            : 25.3 Mb/s
    Movie name                  : Meg 2 The Trench (2023) CinemaniaHDD.Net
    Encoded date                : UTC 2023-08-30 06:38:52
    Writing application         : mkvmerge v56.1.0 ('My Friend') 64-bit
    Writing library             : libebml v1.4.2 + libmatroska v1.6.4
    Attachments                 : CINEMANIAHD.png
    Site                        : CinemaniaHDD.Net
    Uploader                    : Melkor

    Video
    ID                          : 1
    Format                      : HEVC
    Format/Info                 : High Efficiency Video Coding
    Format profile              : Main 10@L5@High
    HDR format                  : Dolby Vision, Version 1.0, dvhe.08.06, BL+RPU, HDR10 compatible / SMPTE ST 2086, HDR10 compatible
    Codec ID                    : V_MPEGH/ISO/HEVC
    Duration                    : 1 h 55 min
    Bit rate                    : 24.1 Mb/s
    Width                       : 3 840 pixels
    Height                      : 2 160 pixels
    Display aspect ratio        : 16:9
    Frame rate mode             : Constant
    Frame rate                  : 23.976 (24000/1001) FPS
    Color space                 : YUV
    Chroma subsampling          : 4:2:0 (Type 2)
    Bit depth                   : 10 bits
    Bits/(Pixel*Frame)          : 0.121
    Stream size                 : 19.5 GiB (95%)
    Title                       : Web 2160p HDR [CinemaniaHDD]
    Language                    : English
    Default                     : Yes
    Forced                      : No
    Color range                 : Limited
    Color primaries             : BT.2020
    Transfer characteristics    : PQ
    Matrix coefficients         : BT.2020 non-constant
    Mastering display color pri : Display P3
    Mastering display luminance : min: 0.0001 cd/m2, max: 1000 cd/m2
    Maximum Content Light Level : 409 cd/m2
    Maximum Frame-Average Light : 71 cd/m2

    Audio #1
    ID                          : 2
    Format                      : AC-3
    Format/Info                 : Audio Coding 3
    Commercial name             : Dolby Digital
    Codec ID                    : A_AC3
    Duration                    : 1 h 55 min
    Bit rate mode               : Constant
    Bit rate                    : 384 kb/s
    Channel(s)                  : 6 channels
    Channel layout              : L R C LFE Ls Rs
    Sampling rate               : 48.0 kHz
    Frame rate                  : 31.250 FPS (1536 SPF)
    Compression mode            : Lossy
    Stream size                 : 318 MiB (2%)
    Title                       : Español Latino [CinemaniaHDD]
    Language                    : Spanish
    Service kind                : Complete Main
    Default                     : Yes
    Forced                      : Yes

    Audio #2
    ID                          : 3
    Format                      : E-AC-3 JOC
    Format/Info                 : Enhanced AC-3 with Joint Object Coding
    Commercial name             : Dolby Digital Plus with Dolby Atmos
    Codec ID                    : A_EAC3
    Duration                    : 1 h 55 min
    Bit rate mode               : Constant
    Bit rate                    : 768 kb/s
    Channel(s)                  : 6 channels
    Channel layout              : L R C LFE Ls Rs
    Sampling rate               : 48.0 kHz
    Frame rate                  : 31.250 FPS (1536 SPF)
    Compression mode            : Lossy
    Stream size                 : 635 MiB (3%)
    Title                       : Ingles [CinemaniaHDD]
    Language                    : English
    Service kind                : Complete Main
    Default                     : No
    Forced                      : No
    Complexity index            : 16
    Number of dynamic objects   : 15
    Bed channel count           : 1 channel
    Bed channel configuration   : LFE

    Text #1
    ID                          : 4
    Format                      : UTF-8
    Codec ID                    : S_TEXT/UTF8
    Codec ID/Info               : UTF-8 Plain Text
    Duration                    : 1 h 54 min
    Bit rate                    : 3 b/s
    Count of elements           : 106
    Stream size                 : 3.15 KiB (0%)
    Title                       : Forzados-SRT [CinemaniaHDD]
    Language                    : Spanish
    Default                     : Yes
    Forced                      : Yes

    Text #2
    ID                          : 5
    Format                      : UTF-8
    Codec ID                    : S_TEXT/UTF8
    Codec ID/Info               : UTF-8 Plain Text
    Duration                    : 1 h 44 min
    Bit rate                    : 51 b/s
    Count of elements           : 1411
    Stream size                 : 39.5 KiB (0%)
    Title                       : Español-SRT [CinemaniaHDD]
    Language                    : Spanish
    Default                     : No
    Forced                      : No

    Text #3
    ID                          : 6
    Format                      : UTF-8
    Codec ID                    : S_TEXT/UTF8
    Codec ID/Info               : UTF-8 Plain Text
    Duration                    : 1 h 48 min
    Bit rate                    : 52 b/s
    Count of elements           : 1639
    Stream size                 : 41.8 KiB (0%)
    Title                       : Ingles-SRT [CinemaniaHDD]
    Language                    : English
    Default                     : No
    Forced                      : No

    Menu
    00:00:00.000                : Chapter 01
    00:08:43.690                : Chapter 02
    00:18:01.498                : Chapter 03
    00:27:15.427                : Chapter 04
    00:36:33.151                : Chapter 05
    00:44:02.517                : Chapter 06
    00:51:22.457                : Chapter 07
    00:58:47.402                : Chapter 08
    01:08:29.275                : Chapter 09
    01:17:18.722                : Chapter 10
    01:26:18.595                : Chapter 11
    01:33:36.366                : Chapter 12
    01:39:35.308                : Chapter 13
    01:46:06.783                : Chapter 14

  • Peso: 20.4 GiB

Sinopsis

Descargar Megalodon 2: El gran abismo (2023) WEB-DL 4K UHD HDR/DV Latino. Una exploración submarina en las profundidades del océano se convierte en una espiral de caos cuando una malévola operación minera amenaza la misión y obliga al equipo de investigación a librar una arriesgada batalla por la supervivencia. Secuela de ‘The Meg’ (2018).

Ficha técnica

Video trailer de la película

Enlaces de descarga

Rip de Bluray

Descargar Megalodon 2: El gran abismo (2023) WEB-DL 4K UHD HDR/DV Latino




Aportes de DPeliculasHDmega la pass es:dpeliculashdmega.org Aportes de CinemaniaHD la pass es:cinemaniahdd.com Aportes recientes:cinemaniahdd.net

Películas relacionadas

descargar Megalodon 2: El gran abismo (2023) WEB-DL 4K UHD HDR/DV Latino WEBDL 1080p gratis, Megalodon 2: El gran abismo (2023) WEB-DL 4K UHD HDR/DV Latino WEBDL mega 1 link, Megalodon 2: El gran abismo (2023) WEB-DL 4K UHD HDR/DV Latino WEBDL pelicula completa, descargar Megalodon 2: El gran abismo (2023) WEB-DL 4K UHD HDR/DV Latino WEBDL gratis en mega.

Megalodon 2: El gran abismo (2023) WEB-DL 4K UHD HDR/DV Latino pelicula full hd, Megalodon 2: El gran abismo (2023) WEB-DL 4K UHD HDR/DV Latino mega latino, Megalodon 2: El gran abismo (2023) WEB-DL 4K UHD HDR/DV Latino 4k latino, Megalodon 2: El gran abismo (2023) WEB-DL 4K UHD HDR/DV Latino pelicula completa, Megalodon 2: El gran abismo (2023) WEB-DL 4K UHD HDR/DV Latino descargar gratis, descargar Megalodon 2: El gran abismo (2023) WEB-DL 4K UHD HDR/DV Latino pelicula latino, Megalodon 2: El gran abismo (2023) WEB-DL 4K UHD HDR/DV Latino 1 link mega, Megalodon 2: El gran abismo (2023) WEB-DL 4K UHD HDR/DV Latino 1 link google drive, Megalodon 2: El gran abismo (2023) WEB-DL 4K UHD HDR/DV Latino hd 1080p latino.
Comentarios 0