Megalodon (2018) 1080p Latino

7.062 vistas
1 estrella2 estrellas3 estrellas4 estrellas5 estrellas (13 votos, promedio: 4,23 de 5)
Cargando…

Información de Megalodon (2018) 1080p Latino

Datos de la película

  • Calidad: 1080p
  • Audio: Español Latino AC3 5.1 BLURAY - Ingles AC3 5.1 BLURAY
  • Subtitulos: Español Latino SRT- FORZADOS SRT
  • Resolución: 1920x800p
  • Formato: MKV
  • Codec: H.264
  • Encoder: Chesse92
  • Mediainfo: Clic para Mostrar Datos Ver
  • Megalodon (2018) 1080p Latino.mkv
    Format                      : Matroska
    Format version              : Version 4 / Version 2
    File size                   : 3.36 GiB
    Duration                    : 1 h 53 min
    Overall bit rate            : 4 249 kb/s
    Movie name                  : CinemaniaHDD.Net
    Encoded date                : UTC 2018-11-03 02:07:18 / UTC 2018-11-03T00:31:34Z
    Writing application         : mkvmerge v25.0.0 ('Prog Noir') 64-bit
    Writing library             : libebml v1.3.6 + libmatroska v1.4.9 / Lavf57.7.2

    Video
    ID                          : 1
    Format                      : AVC
    Format/Info                 : Advanced Video Codec
    Format profile              : [email protected]
    Format settings             : CABAC / 5 Ref Frames
    Format settings, CABAC      : Yes
    Format settings, RefFrames  : 5 frames
    Codec ID                    : V_MPEG4/ISO/AVC
    Duration                    : 1 h 53 min
    Bit rate                    : 3 268 kb/s
    Nominal bit rate            : 3 500 kb/s
    Width                       : 1 920 pixels
    Height                      : 800 pixels
    Display aspect ratio        : 2.40:1
    Frame rate mode             : Constant
    Frame rate                  : 23.976 (24000/1001) FPS
    Color space                 : YUV
    Chroma subsampling          : 4:2:0
    Bit depth                   : 8 bits
    Scan type                   : Progressive
    Bits/(Pixel*Frame)          : 0.089
    Stream size                 : 2.58 GiB (77%)
    Title                       : HD1080p [Bluray]
    Writing library             : x264 core 155 r2893 b00bcaf
    Encoding settings           : cabac=1 / ref=5 / deblock=1:0:0 / analyse=0x3:0x113 / me=hex / subme=8 / psy=1 / psy_rd=1.00:0.00 / mixed_ref=1 / me_range=16 / chroma_me=1 / trellis=2 / 8x8dct=1 / cqm=0 / deadzone=21,11 / fast_pskip=1 / chroma_qp_offset=-2 / threads=25 / lookahead_threads=4 / sliced_threads=0 / nr=0 / decimate=1 / interlaced=0 / bluray_compat=0 / constrained_intra=0 / bframes=3 / b_pyramid=2 / b_adapt=1 / b_bias=0 / direct=3 / weightb=1 / open_gop=0 / weightp=2 / keyint=240 / keyint_min=24 / scenecut=40 / intra_refresh=0 / rc_lookahead=50 / rc=abr / mbtree=1 / bitrate=3500 / ratetol=1.0 / qcomp=0.60 / qpmin=0 / qpmax=69 / qpstep=4 / vbv_maxrate=62500 / vbv_bufsize=78125 / nal_hrd=none / filler=0 / ip_ratio=1.40 / aq=1:1.00
    Default                     : Yes
    Forced                      : No
    Color range                 : Limited
    Color primaries             : BT.709
    Transfer characteristics    : BT.709
    Matrix coefficients         : BT.709
    Statistics Tags Issue       : mkvmerge v25.0.0 ('Prog Noir') 64-bit 2018-11-03 02:07:18 / mkvmerge v25.0.0 ('Prog Noir') 64-bit 2018-11-03 02:07:18 / UTC 2018-11-03T00:31:34Z
    FromStats_BitRate           : 3350800
    FromStats_Duration          : 01:53:13.620000000
    FromStats_FrameCount        : 162884
    FromStats_StreamSize        : 2845508014

    Audio #1
    ID                          : 2
    Format                      : AC-3
    Format/Info                 : Audio Coding 3
    Format settings, Endianness : Big
    Codec ID                    : A_AC3
    Duration                    : 1 h 53 min
    Bit rate mode               : Constant
    Bit rate                    : 448 kb/s
    Channel(s)                  : 6 channels
    Channel positions           : Front: L C R, Side: L R, LFE
    Sampling rate               : 48.0 kHz
    Frame rate                  : 31.250 FPS (1536 SPF)
    Bit depth                   : 16 bits
    Compression mode            : Lossy
    Delay relative to video     : -5 ms
    Stream size                 : 363 MiB (11%)
    Title                       : AC3_5.1_Bluray_Esp
    Language                    : Spanish
    Service kind                : Complete Main
    Default                     : Yes
    Forced                      : Yes
    Statistics Tags Issue       : mkvmerge v25.0.0 ('Prog Noir') 64-bit 2018-11-03 02:07:18 / mkvmerge v25.0.0 ('Prog Noir') 64-bit 2018-11-03 02:07:18 / UTC 2018-11-03T00:31:34Z
    FromStats_BitRate           : 448000
    FromStats_Duration          : 01:53:13.632000000
    FromStats_FrameCount        : 212301
    FromStats_StreamSize        : 380443392

    Audio #2
    ID                          : 3
    Format                      : AC-3
    Format/Info                 : Audio Coding 3
    Format settings, Endianness : Big
    Codec ID                    : A_AC3
    Duration                    : 1 h 53 min
    Bit rate mode               : Constant
    Bit rate                    : 448 kb/s
    Channel(s)                  : 6 channels
    Channel positions           : Front: L C R, Side: L R, LFE
    Sampling rate               : 48.0 kHz
    Frame rate                  : 31.250 FPS (1536 SPF)
    Bit depth                   : 16 bits
    Compression mode            : Lossy
    Stream size                 : 363 MiB (11%)
    Title                       : AC3_5.1_Bluray_Eng
    Language                    : English
    Service kind                : Complete Main
    Default                     : No
    Forced                      : No
    Statistics Tags Issue       : mkvmerge v25.0.0 ('Prog Noir') 64-bit 2018-11-03 02:07:18 / mkvmerge v25.0.0 ('Prog Noir') 64-bit 2018-11-03 02:07:18 / UTC 2018-11-03T00:31:34Z
    FromStats_BitRate           : 448000
    FromStats_Duration          : 01:53:13.600000000
    FromStats_FrameCount        : 212300
    FromStats_StreamSize        : 380441600

    Text #1
    ID                          : 4
    Format                      : UTF-8
    Codec ID                    : S_TEXT/UTF8
    Codec ID/Info               : UTF-8 Plain Text
    Title                       : Sub_Forzados
    Language                    : Spanish
    Default                     : Yes
    Forced                      : Yes
    Statistics Tags Issue       : mkvmerge v25.0.0 ('Prog Noir') 64-bit 2018-11-03 02:07:18 / mkvmerge v25.0.0 ('Prog Noir') 64-bit 2018-11-03 02:07:18 / UTC 2018-11-03T00:31:34Z
    FromStats_BitRate           : 2
    FromStats_Duration          : 01:39:46.179000000
    FromStats_FrameCount        : 100
    FromStats_StreamSize        : 2233

    Text #2
    ID                          : 5
    Format                      : UTF-8
    Codec ID                    : S_TEXT/UTF8
    Codec ID/Info               : UTF-8 Plain Text
    Title                       : Sub_Esp
    Language                    : Spanish
    Default                     : No
    Forced                      : No
    Statistics Tags Issue       : mkvmerge v25.0.0 ('Prog Noir') 64-bit 2018-11-03 02:07:18 / mkvmerge v25.0.0 ('Prog Noir') 64-bit 2018-11-03 02:07:18 / UTC 2018-11-03T00:31:34Z
    FromStats_BitRate           : 46
    FromStats_Duration          : 01:52:27.569000000
    FromStats_FrameCount        : 1385
    FromStats_StreamSize        : 38842

    Menu
    00:00:00.000                : :Chapter 1
    00:08:48.611                : :Chapter 2
    00:18:13.926                : :Chapter 3
    00:27:09.920                : :Chapter 4
    00:39:30.159                : :Chapter 5
    00:49:10.948                : :Chapter 6
    00:58:00.811                : :Chapter 7
    01:08:22.682                : :Chapter 8
    01:19:45.447                : :Chapter 9
    01:30:03.481                : :Chapter 10
    01:42:40.404                : :Chapter 11

  • Peso: 3.36 GiB

Sinopsis

Descargar Gratis Megalodon  HD Latino Un buque militar en búsqueda de un sumergible no identificado se encuentra cara a cara con un tiburón gigante, obligado a usar solo lo que tiene a bordo para defenderse de la monstruosa bestia.

Ficha técnica

Video trailer de la película

Enlaces de descarga

Rip de Bluray

Descargar Megalodon (2018) 1080p Latino




Aportes de DPeliculasHDmega la pass es:dpeliculashdmega.org Aportes de CinemaniaHD la pass es:cinemaniahdd.com

Películas relacionadas

  • Wolf Warrior 2 (2017) 1080p Latino

    2017
    Wolf Warrior 2 (2017) 1080p Latino

    0.0 2h 6m 2017

    Secuela de la película de acción exitosa "Wolf Warrior" (2015) La operación más peligrosa de las...

    Director: Wu Jing

    Género: Acción

    Actores: Yu Qian

  • Robin Hood orígenes (2018) Full 1080p Latino

    2018
    Robin Hood orígenes (2018) Full 1080p Latino

    0.0 1h 56m 2018

    Cuando el joven Robin Hood (Taron Egerton) regresa a su hogar, endurecido, tras luchar como guerrero...

    Director: Otto Bathurst

    Género: Acción

    Actores: Yasen Atour

  • Papillon (2017) 1080p Latino

    2017
    Papillon (2017) 1080p Latino

    0.0 1h 49m 2017

    Red Granite Pictures producte esta nueva versión del clásico homónimo de 1973 dirigido por Franklin...

    Director: Michael Noer

    Género: Drama

    Actores: Yorick van Wageningen

Comentarios 2
  • Camila - 31 octubre, 2018

    Por fin!!!!!! ? ? ?

  • Mercenario - 30 octubre, 2018

    Gracias, a disfrutar se a dicho ?