×

¿Problemas para descargar con Mozilla, EDGE? Deshabilita la opción "Abrir vinculos en una pestaña nueva" tal como lo muestra ésta imagen.

Meet the Parents (2000) REMUX 1080p Latino – CMHDD

348 vistas

Información de Meet the Parents (2000) REMUX 1080p Latino – CMHDD

Datos de la película

  • Calidad: Full 1080p
  • Audio: Español Latino AC3 5.1 BLURAY - Ingles DTS 5.1 BLURAY
  • Subtitulos: Español Latino PGS
  • Resolución: 1920x1080p
  • Formato: MKV
  • Codec: H.264
  • Encoder: Dracarys
  • Mediainfo: Clic para Mostrar Datos Ver
  • Format                      : Matroska
    Format version              : Version 4
    File size                   : 27.8 GiB
    Duration                    : 1 h 47 min
    Overall bit rate mode       : Variable
    Overall bit rate            : 37.0 Mb/s
    Movie name                  : Meet the Parents (2000) REMUX 1080p Latino - CMHDD
    Encoded date                : UTC 2022-01-21 21:37:10
    Writing application         : mkvmerge v17.0.0 ('Be Ur Friend') 64-bit
    Writing library             : libebml v1.3.5 + libmatroska v1.4.8

    Video
    ID                          : 1
    Format                      : AVC
    Format/Info                 : Advanced Video Codec
    Format profile              : High@L4.1
    Format settings             : CABAC / 4 Ref Frames
    Format settings, CABAC      : Yes
    Format settings, Reference  : 4 frames
    Codec ID                    : V_MPEG4/ISO/AVC
    Duration                    : 1 h 47 min
    Bit rate mode               : Variable
    Bit rate                    : 34.0 Mb/s
    Maximum bit rate            : 36.0 Mb/s
    Width                       : 1 920 pixels
    Height                      : 1 080 pixels
    Display aspect ratio        : 16:9
    Frame rate mode             : Constant
    Frame rate                  : 23.976 (24000/1001) FPS
    Color space                 : YUV
    Chroma subsampling          : 4:2:0
    Bit depth                   : 8 bits
    Scan type                   : Progressive
    Bits/(Pixel*Frame)          : 0.683
    Stream size                 : 25.5 GiB (92%)
    Default                     : Yes
    Forced                      : No
    Color range                 : Limited
    Color primaries             : BT.709
    Transfer characteristics    : BT.709
    Matrix coefficients         : BT.709

    Audio #1
    ID                          : 2
    Format                      : DTS XLL
    Format/Info                 : Digital Theater Systems
    Commercial name             : DTS-HD Master Audio
    Codec ID                    : A_DTS
    Duration                    : 1 h 47 min
    Bit rate mode               : Variable
    Bit rate                    : 2 526 kb/s
    Channel(s)                  : 6 channels
    Channel layout              : C L R Ls Rs LFE
    Sampling rate               : 48.0 kHz
    Frame rate                  : 93.750 FPS (512 SPF)
    Bit depth                   : 24 bits
    Compression mode            : Lossless
    Stream size                 : 1.90 GiB (7%)
    Language                    : English
    Default                     : No
    Forced                      : No

    Audio #2
    ID                          : 3
    Format                      : AC-3
    Format/Info                 : Audio Coding 3
    Commercial name             : Dolby Digital
    Codec ID                    : A_AC3
    Duration                    : 1 h 47 min
    Bit rate mode               : Constant
    Bit rate                    : 448 kb/s
    Channel(s)                  : 6 channels
    Channel layout              : L R C LFE Ls Rs
    Sampling rate               : 48.0 kHz
    Frame rate                  : 31.250 FPS (1536 SPF)
    Compression mode            : Lossy
    Stream size                 : 345 MiB (1%)
    Language                    : Spanish
    Service kind                : Complete Main
    Default                     : Yes
    Forced                      : No

    Text
    ID                          : 4
    Format                      : PGS
    Muxing mode                 : zlib
    Codec ID                    : S_HDMV/PGS
    Codec ID/Info               : Picture based subtitle format used on BDs/HD-DVDs
    Duration                    : 1 h 42 min
    Bit rate                    : 61.0 kb/s
    Count of elements           : 3320
    Stream size                 : 44.8 MiB (0%)
    Language                    : Spanish
    Default                     : No
    Forced                      : No

    Menu
    00:00:00.000                : en:Chapter 1
    00:04:25.181                : en:Chapter 2
    00:08:05.526                : en:Chapter 3
    00:17:42.478                : en:Chapter 4
    00:23:59.062                : en:Chapter 5
    00:31:52.368                : en:Chapter 6
    00:37:09.268                : en:Chapter 7
    00:40:50.114                : en:Chapter 8
    00:44:15.444                : en:Chapter 9
    00:49:46.900                : en:Chapter 10
    00:52:01.868                : en:Chapter 11
    00:59:06.584                : en:Chapter 12
    01:03:06.324                : en:Chapter 13
    01:06:37.410                : en:Chapter 14
    01:11:54.351                : en:Chapter 15
    01:28:32.640                : en:Chapter 16
    01:33:34.609                : en:Chapter 17
    01:35:57.626                : en:Chapter 18
    01:38:49.632                : en:Chapter 19
    01:43:51.016                : en:Chapter 20

  • Peso: 27.8 GiB

Sinopsis

Greg Focker es un enfermero algo patoso que, tras anunciar su compromiso con novia Pam, tiene que pasar unos días con los padres de ella, para conocerles. Su encuentro inicial no será muy afortunado, en especial por las suspicacias que Greg levanta en el estricto padre de la novia, un padre protector exagente de la CIA al que es muy difícil impresionar. Desde el principio, Jim rechaza por completo a Greg, pero a medida que lo conoce mejor, su rechazo se convierte en absoluto desprecio, y se encarga de convertirse en la peor pesadilla de este hombre que, a pesar de amar a su novia y querer dar una buena primera impresión, cada vez se hunde más en el lodo de su propia ineptitud, y deberá luchar mucho para poder cambiar la pésima opinión que tienen de él los parientes de su novia.

Ficha técnica

Video trailer de la película

Enlaces de descarga

Rip de Bluray

Descargar Meet the Parents (2000) REMUX 1080p Latino – CMHDD


Aportes de DPeliculasHDmega la pass es:dpeliculashdmega.org Aportes de CinemaniaHD la pass es:cinemaniahdd.com
Guardado en : Comedia , Romance

Películas relacionadas

descargar Meet the Parents (2000) REMUX 1080p Latino – CMHDD Full 1080p 1080p gratis, Meet the Parents (2000) REMUX 1080p Latino – CMHDD Full 1080p mega 1 link, Meet the Parents (2000) REMUX 1080p Latino – CMHDD Full 1080p pelicula completa, descargar Meet the Parents (2000) REMUX 1080p Latino – CMHDD Full 1080p gratis en mega.

Meet the Parents (2000) REMUX 1080p Latino – CMHDD pelicula full hd, Meet the Parents (2000) REMUX 1080p Latino – CMHDD mega latino, Meet the Parents (2000) REMUX 1080p Latino – CMHDD 4k latino, Meet the Parents (2000) REMUX 1080p Latino – CMHDD pelicula completa, Meet the Parents (2000) REMUX 1080p Latino – CMHDD descargar gratis, descargar Meet the Parents (2000) REMUX 1080p Latino – CMHDD pelicula latino, Meet the Parents (2000) REMUX 1080p Latino – CMHDD 1 link mega, Meet the Parents (2000) REMUX 1080p Latino – CMHDD 1 link google drive, Meet the Parents (2000) REMUX 1080p Latino – CMHDD hd 1080p latino.
Comentarios 0