×

¿Problemas para descargar con Mozilla, EDGE? Deshabilita la opción "Abrir vinculos en una pestaña nueva" tal como lo muestra ésta imagen.

Meet Joe Black (1998) REMUX 1080p Latino – CMHDD

136 vistas

Información de Meet Joe Black (1998) REMUX 1080p Latino – CMHDD

Datos de la película

  • Calidad: Full 1080p
  • Audio: Español Latino DTS 5.1 BLURAY - Ingles DTS 5.1 BLURAY
  • Subtitulos: Español Latino PGS
  • Resolución: 1920x1080p
  • Formato: MKV
  • Codec: H.264
  • Encoder: Dracarys
  • Mediainfo: Clic para Mostrar Datos Ver
  • Format                      : Matroska
    Format version              : Version 4
    File size                   : 25.6 GiB
    Duration                    : 3 h 0 min
    Overall bit rate mode       : Variable
    Overall bit rate            : 20.4 Mb/s
    Movie name                  : Meet Joe Black (1998) REMUX 1080p Latino - CMHDD
    Encoded date                : UTC 2023-09-03 17:28:06
    Writing application         : mkvmerge v47.0.0 ('Black Flag') 64-bit
    Writing library             : libebml v1.3.10 + libmatroska v1.5.2
    Cover                       : Yes
    Attachments                 : cover.jpg

    Video
    ID                          : 1
    ID in the original source m : 4113 (0x1011)
    Format                      : VC-1
    Format profile              : Advanced@L3
    Codec ID                    : V_MS/VFW/FOURCC / WVC1
    Codec ID/Hint               : Microsoft
    Duration                    : 3 h 0 min
    Bit rate                    : 16.1 Mb/s
    Width                       : 1 920 pixels
    Height                      : 1 080 pixels
    Display aspect ratio        : 16:9
    Frame rate mode             : Constant
    Frame rate                  : 23.976 (24000/1001) FPS
    Color space                 : YUV
    Chroma subsampling          : 4:2:0
    Bit depth                   : 8 bits
    Scan type                   : Progressive
    Compression mode            : Lossy
    Bits/(Pixel*Frame)          : 0.323
    Stream size                 : 20.2 GiB (79%)
    Default                     : Yes
    Forced                      : No
    Original source medium      : Blu-ray

    Audio #1
    ID                          : 2
    ID in the original source m : 4353 (0x1101)
    Format                      : DTS XLL
    Format/Info                 : Digital Theater Systems
    Commercial name             : DTS-HD Master Audio
    Codec ID                    : A_DTS
    Duration                    : 3 h 0 min
    Bit rate mode               : Variable
    Bit rate                    : 3 525 kb/s
    Channel(s)                  : 6 channels
    Channel layout              : C L R Ls Rs LFE
    Sampling rate               : 48.0 kHz
    Frame rate                  : 93.750 FPS (512 SPF)
    Bit depth                   : 24 bits
    Compression mode            : Lossless
    Stream size                 : 4.44 GiB (17%)
    Language                    : English
    Default                     : No
    Forced                      : No
    Original source medium      : Blu-ray

    Audio #2
    ID                          : 3
    ID in the original source m : 4359 (0x1107)
    Format                      : DTS
    Format/Info                 : Digital Theater Systems
    Codec ID                    : A_DTS
    Duration                    : 3 h 0 min
    Bit rate mode               : Constant
    Bit rate                    : 768 kb/s
    Channel(s)                  : 6 channels
    Channel layout              : C L R Ls Rs LFE
    Sampling rate               : 48.0 kHz
    Frame rate                  : 93.750 FPS (512 SPF)
    Bit depth                   : 24 bits
    Compression mode            : Lossy
    Stream size                 : 990 MiB (4%)
    Language                    : Spanish
    Default                     : Yes
    Forced                      : No
    Original source medium      : Blu-ray

    Text
    ID                          : 4
    ID in the original source m : 4615 (0x1207)
    Format                      : PGS
    Muxing mode                 : zlib
    Codec ID                    : S_HDMV/PGS
    Codec ID/Info               : Picture based subtitle format used on BDs/HD-DVDs
    Duration                    : 2 h 52 min
    Bit rate                    : 32.3 kb/s
    Frame rate                  : 0.373 FPS
    Count of elements           : 3855
    Stream size                 : 39.7 MiB (0%)
    Language                    : Spanish
    Default                     : No
    Forced                      : No
    Original source medium      : Blu-ray

    Menu
    00:00:00.000                : en:Capítulo 01
    00:02:43.830                : en:Capítulo 02
    00:11:05.748                : en:Capítulo 03
    00:22:13.165                : en:Capítulo 04
    00:50:30.027                : en:Capítulo 05
    01:01:09.999                : en:Capítulo 06
    01:11:29.910                : en:Capítulo 07
    01:25:20.990                : en:Capítulo 08
    01:32:19.450                : en:Capítulo 09
    01:37:13.285                : en:Capítulo 10
    01:44:29.721                : en:Capítulo 11
    02:05:46.914                : en:Capítulo 12
    02:17:29.658                : en:Capítulo 13
    02:21:50.335                : en:Capítulo 14
    02:30:16.507                : en:Capítulo 15
    02:36:23.499                : en:Capítulo 16
    02:49:02.340                : en:Capítulo 17
    02:54:26.456                : en:Capítulo 18

  • Peso: 25.6 GiB

Sinopsis

William Parrish es un poderoso y meticuloso magnate cuya vida se ve alterada por la llegada de un enigmático joven llamado Joe Black que se enamora de su hija. Se trata, en realidad, de la personificación de la muerte, con una misión que cumplir en dicho hogar. Versión del filme de 1934 «La muerte de vacaciones».

Ficha técnica

Video trailer de la película

Enlaces de descarga

Rip de Bluray

Descargar Meet Joe Black (1998) REMUX 1080p Latino – CMHDD


Aportes de DPeliculasHDmega la pass es:dpeliculashdmega.org Aportes de CinemaniaHD la pass es:cinemaniahdd.com Aportes recientes:cinemaniahdd.net
Guardado en : Drama , Fantasía , Romance

Películas relacionadas

  • iZombie (2016) Temporada 02 Full HD 1080p Latino

    iZombie (2016) Temporada 02 Full HD 1080p Latino

    2015
    iZombie (2016) Temporada 02 Full HD 1080p Latino

    0h 42m 2015

    Descargar iZombie (2016) Temporada 02 Full HD 1080p Latino. Gira en torno a una estudiante de medicina...

    Director: Rob Thomas

    Género: Crimen

    Actores: Rose McIver

  • iZombie (2016) Temporada 02 REMUX 1080p Latino

    iZombie (2016) Temporada 02 REMUX 1080p Latino

    2015
    iZombie (2016) Temporada 02 REMUX 1080p Latino

    0h 42m 2015

    Descargar iZombie (2016) Temporada 02 REMUX 1080p Latino. Gira en torno a una estudiante de medicina...

    Director: Rob Thomas

    Género: Crimen

    Actores: Rose McIver

  • iZombie (2015) Temporada 01 Full HD 1080p Latino

    iZombie (2015) Temporada 01 Full HD 1080p Latino

    2015
    iZombie (2015) Temporada 01 Full HD 1080p Latino

    0h 42m 2015

    Descargar iZombie (2015) Temporada 01 Full HD 1080p Latino. Gira en torno a una estudiante de medicina...

    Director: Rob Thomas

    Género: Crimen

    Actores: Rose McIver

  • iZombie (2015) Temporada 01 REMUX 1080p Latino

    iZombie (2015) Temporada 01 REMUX 1080p Latino

    2015
    iZombie (2015) Temporada 01 REMUX 1080p Latino

    0h 42m 2015

    Descargar iZombie (2015) Temporada 01 REMUX 1080p Latino. Gira en torno a una estudiante de medicina...

    Director: Rob Thomas

    Género: Crimen

    Actores: Rose McIver

descargar Meet Joe Black (1998) REMUX 1080p Latino – CMHDD Full 1080p 1080p gratis, Meet Joe Black (1998) REMUX 1080p Latino – CMHDD Full 1080p mega 1 link, Meet Joe Black (1998) REMUX 1080p Latino – CMHDD Full 1080p pelicula completa, descargar Meet Joe Black (1998) REMUX 1080p Latino – CMHDD Full 1080p gratis en mega.

Meet Joe Black (1998) REMUX 1080p Latino – CMHDD pelicula full hd, Meet Joe Black (1998) REMUX 1080p Latino – CMHDD mega latino, Meet Joe Black (1998) REMUX 1080p Latino – CMHDD 4k latino, Meet Joe Black (1998) REMUX 1080p Latino – CMHDD pelicula completa, Meet Joe Black (1998) REMUX 1080p Latino – CMHDD descargar gratis, descargar Meet Joe Black (1998) REMUX 1080p Latino – CMHDD pelicula latino, Meet Joe Black (1998) REMUX 1080p Latino – CMHDD 1 link mega, Meet Joe Black (1998) REMUX 1080p Latino – CMHDD 1 link google drive, Meet Joe Black (1998) REMUX 1080p Latino – CMHDD hd 1080p latino.
Comentarios 0