×

¿Problemas para descargar con Mozilla, EDGE? Deshabilita la opción "Abrir vinculos en una pestaña nueva" tal como lo muestra ésta imagen.

Medianoche en el Switchgrass (2021) REMUX 1080p Latino

130 vistas

Información de Medianoche en el Switchgrass (2021) REMUX 1080p Latino

Datos de la película

  • Calidad: Full 1080p
  • Audio: Español Latino AC3 5.1 WEB-DL - Ingles DTS 5.1 BLURAY
  • Subtitulos: Español Latino PGS - Ingles PGS
  • Resolución: 1920x1080p
  • Formato: MKV
  • Codec: H.264
  • Encoder: Melkor
  • Mediainfo: Clic para Mostrar Datos Ver
  • Medianoche en Switchgrass (2021) REMUX 1080p Latino.mkv
    Format                      : Matroska
    Format version              : Version 4
    File size                   : 20.4 GiB
    Duration                    : 1 h 38 min
    Overall bit rate mode       : Variable
    Overall bit rate            : 29.6 Mb/s
    Movie name                  : Midnight in the Switchgrass (2021) CinemaniaHDD.Net
    Encoded date                : UTC 2021-09-03 06:15:05
    Writing application         : mkvmerge v56.1.0 ('My Friend') 64-bit
    Writing library             : libebml v1.4.2 + libmatroska v1.6.4
    Attachments                 : CINEMANIAHD.png

    Video
    ID                          : 1
    Format                      : AVC
    Format/Info                 : Advanced Video Codec
    Format profile              : High@L4.1
    Format settings             : CABAC / 4 Ref Frames
    Format settings, CABAC      : Yes
    Format settings, Reference  : 4 frames
    Codec ID                    : V_MPEG4/ISO/AVC
    Duration                    : 1 h 38 min
    Bit rate mode               : Variable
    Bit rate                    : 25.3 Mb/s
    Maximum bit rate            : 37.0 Mb/s
    Width                       : 1 920 pixels
    Height                      : 1 080 pixels
    Display aspect ratio        : 16:9
    Frame rate mode             : Constant
    Frame rate                  : 23.976 (24000/1001) FPS
    Color space                 : YUV
    Chroma subsampling          : 4:2:0
    Bit depth                   : 8 bits
    Scan type                   : Progressive
    Bits/(Pixel*Frame)          : 0.508
    Stream size                 : 17.4 GiB (85%)
    Title                       : REMUX HD1080p [CinemaniaHDD]
    Language                    : English
    Default                     : Yes
    Forced                      : Yes

    Audio #1
    ID                          : 2
    Format                      : AC-3
    Format/Info                 : Audio Coding 3
    Commercial name             : Dolby Digital
    Codec ID                    : A_AC3
    Duration                    : 1 h 38 min
    Bit rate mode               : Constant
    Bit rate                    : 640 kb/s
    Channel(s)                  : 6 channels
    Channel layout              : L R C LFE Ls Rs
    Sampling rate               : 48.0 kHz
    Frame rate                  : 31.250 FPS (1536 SPF)
    Compression mode            : Lossy
    Stream size                 : 452 MiB (2%)
    Title                       : Español Latino [CinemaniaHDD]
    Language                    : Spanish
    Service kind                : Complete Main
    Default                     : Yes
    Forced                      : Yes

    Audio #2
    ID                          : 3
    Format                      : DTS XLL
    Format/Info                 : Digital Theater Systems
    Commercial name             : DTS-HD Master Audio
    Codec ID                    : A_DTS
    Duration                    : 1 h 38 min
    Bit rate mode               : Variable
    Bit rate                    : 3 662 kb/s
    Channel(s)                  : 6 channels
    Channel layout              : C L R Ls Rs LFE
    Sampling rate               : 48.0 kHz
    Frame rate                  : 93.750 FPS (512 SPF)
    Bit depth                   : 24 bits
    Compression mode            : Lossless
    Stream size                 : 2.53 GiB (12%)
    Title                       : Ingles [CinemaniaHDD]
    Language                    : English
    Default                     : No
    Forced                      : No

    Text #1
    ID                          : 4
    Format                      : PGS
    Muxing mode                 : zlib
    Codec ID                    : S_HDMV/PGS
    Codec ID/Info               : Picture based subtitle format used on BDs/HD-DVDs
    Duration                    : 1 h 36 min
    Bit rate                    : 27.2 kb/s
    Count of elements           : 1910
    Stream size                 : 18.8 MiB (0%)
    Title                       : Español-PGS [CinemaniaHDD]
    Language                    : Spanish
    Default                     : No
    Forced                      : No

    Text #2
    ID                          : 5
    Format                      : PGS
    Muxing mode                 : zlib
    Codec ID                    : S_HDMV/PGS
    Codec ID/Info               : Picture based subtitle format used on BDs/HD-DVDs
    Duration                    : 1 h 30 min
    Bit rate                    : 35.2 kb/s
    Count of elements           : 2402
    Stream size                 : 22.9 MiB (0%)
    Title                       : Ingles-PGS [CinemaniaHDD]
    Language                    : English
    Default                     : No
    Forced                      : No

    Text #3
    ID                          : 6
    Format                      : UTF-8
    Codec ID                    : S_TEXT/UTF8
    Codec ID/Info               : UTF-8 Plain Text
    Duration                    : 1 h 33 min
    Bit rate                    : 1 b/s
    Count of elements           : 19
    Stream size                 : 763 Bytes (0%)
    Title                       : Forzados-SRT [CinemaniaHDD]
    Language                    : Spanish
    Default                     : Yes
    Forced                      : Yes

    Text #4
    ID                          : 7
    Format                      : UTF-8
    Codec ID                    : S_TEXT/UTF8
    Codec ID/Info               : UTF-8 Plain Text
    Duration                    : 1 h 33 min
    Bit rate                    : 54 b/s
    Count of elements           : 998
    Stream size                 : 37.1 KiB (0%)
    Title                       : Español-SRT [CinemaniaHDD]
    Language                    : Spanish
    Default                     : No
    Forced                      : No

    Menu
    00:00:00.000                : Chapter 01
    00:06:15.875                : Chapter 02
    00:08:55.744                : Chapter 03
    00:16:05.882                : Chapter 04
    00:22:47.616                : Chapter 05
    00:31:44.486                : Chapter 06
    00:36:17.884                : Chapter 07
    00:41:29.320                : Chapter 08
    00:48:01.170                : Chapter 09
    00:53:08.685                : Chapter 10
    01:00:19.324                : Chapter 11
    01:04:29.616                : Chapter 12
    01:10:20.675                : Chapter 13
    01:18:24.116                : Chapter 14
    01:23:52.444                : Chapter 15
    01:29:51.970                : Chapter 16

  • Peso: 20.4 GiB

Sinopsis

Descargar Medianoche en el Switchgrass (2021) REMUX 1080p Latino. El agente del FBI Helter y su socio Lombardi están muy cerca de romper una red de tráfico sexual. Cuando se dan cuenta de que su investigación se ha cruzado en el camino de un brutal asesino en serie, se unen a un Texas Ranger para poner fin al infame ‘Truck Stop Killer’.

Ficha técnica

Video trailer de la película

Enlaces de descarga

Rip de Bluray

Descargar Medianoche en el Switchgrass (2021) REMUX 1080p Latino




Aportes de DPeliculasHDmega la pass es:dpeliculashdmega.org Aportes de CinemaniaHD la pass es:cinemaniahdd.com
Guardado en : Acción , Crimen , Misterio , Remux , Suspenso

Películas relacionadas

descargar Medianoche en el Switchgrass (2021) REMUX 1080p Latino Full 1080p 1080p gratis, Medianoche en el Switchgrass (2021) REMUX 1080p Latino Full 1080p mega 1 link, Medianoche en el Switchgrass (2021) REMUX 1080p Latino Full 1080p pelicula completa, descargar Medianoche en el Switchgrass (2021) REMUX 1080p Latino Full 1080p gratis en mega.

Medianoche en el Switchgrass (2021) REMUX 1080p Latino pelicula full hd, Medianoche en el Switchgrass (2021) REMUX 1080p Latino mega latino, Medianoche en el Switchgrass (2021) REMUX 1080p Latino 4k latino, Medianoche en el Switchgrass (2021) REMUX 1080p Latino pelicula completa, Medianoche en el Switchgrass (2021) REMUX 1080p Latino descargar gratis, descargar Medianoche en el Switchgrass (2021) REMUX 1080p Latino pelicula latino, Medianoche en el Switchgrass (2021) REMUX 1080p Latino 1 link mega, Medianoche en el Switchgrass (2021) REMUX 1080p Latino 1 link google drive, Medianoche en el Switchgrass (2021) REMUX 1080p Latino hd 1080p latino.
Comentarios 0