×

¿Problemas para descargar con Mozilla, EDGE? Deshabilita la opción "Abrir vinculos en una pestaña nueva" tal como lo muestra ésta imagen.

Mean Girls (2004) REMUX 1080p Latino – CMHDD

272 vistas

Información de Mean Girls (2004) REMUX 1080p Latino – CMHDD

Datos de la película

  • Calidad: Full 1080p
  • Audio: Español Latino AC3 5.1 BLURAY - Ingles AC3 5.1 BLURAY
  • Subtitulos: Español Latino PGS
  • Resolución: 1920x1080p
  • Formato: MKV
  • Codec: H.264
  • Encoder: Dracarys
  • Mediainfo: Clic para Mostrar Datos Ver
  • Format                      : Matroska
    Format version              : Version 4
    File size                   : 26.0 GiB
    Duration                    : 1 h 36 min
    Overall bit rate mode       : Variable
    Overall bit rate            : 38.4 Mb/s
    Movie name                  : Mean Girls (2004) REMUX 1080p Latino - CMHDD
    Encoded date                : UTC 2021-05-02 00:57:38
    Writing application         : mkvmerge v56.1.0 ('My Friend') 64-bit
    Writing library             : libebml v1.4.2 + libmatroska v1.6.4
    Cover                       : Yes
    Attachments                 : cover.jpg

    Video
    ID                          : 1
    ID in the original source m : 4113 (0x1011)
    Format                      : AVC
    Format/Info                 : Advanced Video Codec
    Format profile              : High@L4.1
    Format settings             : CABAC / 4 Ref Frames
    Format settings, CABAC      : Yes
    Format settings, Reference  : 4 frames
    Codec ID                    : V_MPEG4/ISO/AVC
    Duration                    : 1 h 36 min
    Bit rate mode               : Variable
    Bit rate                    : 33.4 Mb/s
    Maximum bit rate            : 34.6 Mb/s
    Width                       : 1 920 pixels
    Height                      : 1 080 pixels
    Display aspect ratio        : 16:9
    Frame rate mode             : Constant
    Frame rate                  : 23.976 (24000/1001) FPS
    Color space                 : YUV
    Chroma subsampling          : 4:2:0
    Bit depth                   : 8 bits
    Scan type                   : Progressive
    Bits/(Pixel*Frame)          : 0.671
    Stream size                 : 22.6 GiB (87%)
    Default                     : Yes
    Forced                      : No
    Color range                 : Limited
    Color primaries             : BT.709
    Transfer characteristics    : BT.709
    Matrix coefficients         : BT.709
    Original source medium      : Blu-ray

    Audio #1
    ID                          : 2
    ID in the original source m : 4352 (0x1100)
    Format                      : MLP FBA
    Format/Info                 : Meridian Lossless Packing FBA
    Commercial name             : Dolby TrueHD
    Codec ID                    : A_TRUEHD
    Duration                    : 1 h 36 min
    Bit rate mode               : Variable
    Bit rate                    : 3 613 kb/s
    Maximum bit rate            : 5 247 kb/s
    Channel(s)                  : 6 channels
    Channel layout              : L R C LFE Ls Rs
    Sampling rate               : 48.0 kHz
    Frame rate                  : 1 200.000 FPS (40 SPF)
    Compression mode            : Lossless
    Stream size                 : 2.45 GiB (9%)
    Language                    : English
    Default                     : No
    Forced                      : No
    Original source medium      : Blu-ray

    Audio #2
    ID                          : 3
    ID in the original source m : 4352 (0x1100)
    Format                      : AC-3
    Format/Info                 : Audio Coding 3
    Commercial name             : Dolby Digital
    Codec ID                    : A_AC3
    Duration                    : 1 h 36 min
    Bit rate mode               : Constant
    Bit rate                    : 640 kb/s
    Channel(s)                  : 6 channels
    Channel layout              : L R C LFE Ls Rs
    Sampling rate               : 48.0 kHz
    Frame rate                  : 31.250 FPS (1536 SPF)
    Compression mode            : Lossy
    Stream size                 : 444 MiB (2%)
    Language                    : English
    Service kind                : Complete Main
    Default                     : No
    Forced                      : No
    Original source medium      : Blu-ray

    Audio #3
    ID                          : 4
    ID in the original source m : 4354 (0x1102)
    Format                      : AC-3
    Format/Info                 : Audio Coding 3
    Commercial name             : Dolby Digital
    Codec ID                    : A_AC3
    Duration                    : 1 h 36 min
    Bit rate mode               : Constant
    Bit rate                    : 640 kb/s
    Channel(s)                  : 6 channels
    Channel layout              : L R C LFE Ls Rs
    Sampling rate               : 48.0 kHz
    Frame rate                  : 31.250 FPS (1536 SPF)
    Compression mode            : Lossy
    Stream size                 : 444 MiB (2%)
    Language                    : Spanish
    Service kind                : Complete Main
    Default                     : Yes
    Forced                      : No
    Original source medium      : Blu-ray

    Text
    ID                          : 5
    ID in the original source m : 4611 (0x1203)
    Format                      : PGS
    Muxing mode                 : zlib
    Codec ID                    : S_HDMV/PGS
    Codec ID/Info               : Picture based subtitle format used on BDs/HD-DVDs
    Duration                    : 1 h 32 min
    Bit rate                    : 46.3 kb/s
    Count of elements           : 2522
    Stream size                 : 30.7 MiB (0%)
    Language                    : Spanish
    Default                     : No
    Forced                      : No
    Original source medium      : Blu-ray

    Menu
    00:00:00.000                : Chapter 01
    00:05:29.370                : Chapter 02
    00:13:39.443                : Chapter 03
    00:18:09.004                : Chapter 04
    00:23:55.559                : Chapter 05
    00:29:31.060                : Chapter 06
    00:35:12.360                : Chapter 07
    00:40:07.154                : Chapter 08
    00:44:10.939                : Chapter 09
    00:47:50.200                : Chapter 10
    00:51:44.601                : Chapter 11
    00:56:16.706                : Chapter 12
    01:02:00.007                : Chapter 13
    01:05:46.484                : Chapter 14
    01:08:31.232                : Chapter 15
    01:16:04.393                : Chapter 16
    01:21:16.830                : Chapter 17
    01:26:26.598                : Chapter 18
    01:31:38.910                : Chapter 19

  • Peso: 26.0 GiB

Sinopsis

Una joven adolescente, Cady, acostumbrada a vivir en África con sus padres, zoólogos, se encuentra una nueva jungla cuando se muda a Illinois. Allí acude a la escuela pública, donde se enamorará del ex-novio de la chica más popular del colegio. Las chicas comenzarán a hacer la vida imposible a Cady, y ésta no tendrá otro remedio que usar sus mismas tácticas para mantenerse a flote.

Ficha técnica

Video trailer de la película

Enlaces de descarga

Rip de Bluray

Descargar Mean Girls (2004) REMUX 1080p Latino – CMHDD


Aportes de DPeliculasHDmega la pass es:dpeliculashdmega.org Aportes de CinemaniaHD la pass es:cinemaniahdd.com
Guardado en : Comedia

Películas relacionadas

descargar Mean Girls (2004) REMUX 1080p Latino – CMHDD Full 1080p 1080p gratis, Mean Girls (2004) REMUX 1080p Latino – CMHDD Full 1080p mega 1 link, Mean Girls (2004) REMUX 1080p Latino – CMHDD Full 1080p pelicula completa, descargar Mean Girls (2004) REMUX 1080p Latino – CMHDD Full 1080p gratis en mega.

Mean Girls (2004) REMUX 1080p Latino – CMHDD pelicula full hd, Mean Girls (2004) REMUX 1080p Latino – CMHDD mega latino, Mean Girls (2004) REMUX 1080p Latino – CMHDD 4k latino, Mean Girls (2004) REMUX 1080p Latino – CMHDD pelicula completa, Mean Girls (2004) REMUX 1080p Latino – CMHDD descargar gratis, descargar Mean Girls (2004) REMUX 1080p Latino – CMHDD pelicula latino, Mean Girls (2004) REMUX 1080p Latino – CMHDD 1 link mega, Mean Girls (2004) REMUX 1080p Latino – CMHDD 1 link google drive, Mean Girls (2004) REMUX 1080p Latino – CMHDD hd 1080p latino.
Comentarios 0