×

¿Problemas para descargar con Mozilla, EDGE? Deshabilita la opción "Abrir vinculos en una pestaña nueva" tal como lo muestra ésta imagen.

Mean Girls (2004) Full HD 1080p Latino – CMHDD

271 vistas

Información de Mean Girls (2004) Full HD 1080p Latino – CMHDD

Datos de la película

  • Calidad: Full 1080p
  • Audio: Español Latino AC3 5.1 BLURAY - Ingles AC3 5.1 BLURAY
  • Subtitulos: Español Latino PGS
  • Resolución: 1920x1080p
  • Formato: MKV
  • Codec: H.264
  • Encoder: Dracarys
  • Mediainfo: Clic para Mostrar Datos Ver
  • Format                      : Matroska
    Format version              : Version 4
    File size                   : 9.66 GiB
    Duration                    : 1 h 36 min
    Overall bit rate            : 14.3 Mb/s
    Movie name                  : Mean Girls (2004) Full HD 1080p Latino - CMHDD
    Encoded date                : UTC 2021-05-02 20:32:13
    Writing application         : mkvmerge v56.1.0 ('My Friend') 64-bit
    Writing library             : libebml v1.4.2 + libmatroska v1.6.4

    Video
    ID                          : 1
    Format                      : AVC
    Format/Info                 : Advanced Video Codec
    Format profile              : High@L4.1
    Format settings             : CABAC / 4 Ref Frames
    Format settings, CABAC      : Yes
    Format settings, Reference  : 4 frames
    Codec ID                    : V_MPEG4/ISO/AVC
    Duration                    : 1 h 36 min
    Bit rate                    : 13.0 Mb/s
    Width                       : 1 920 pixels
    Height                      : 1 080 pixels
    Display aspect ratio        : 16:9
    Frame rate mode             : Constant
    Frame rate                  : 23.976 (24000/1001) FPS
    Color space                 : YUV
    Chroma subsampling          : 4:2:0
    Bit depth                   : 8 bits
    Scan type                   : Progressive
    Bits/(Pixel*Frame)          : 0.261
    Stream size                 : 8.78 GiB (91%)
    Writing library             : x264 core 157 r2935 545de2f
    Encoding settings           : cabac=1 / ref=4 / deblock=1:0:0 / analyse=0x3:0x133 / me=tesa / subme=11 / psy=1 / psy_rd=1.00:0.00 / mixed_ref=1 / me_range=24 / chroma_me=1 / trellis=2 / 8x8dct=1 / cqm=0 / deadzone=21,11 / fast_pskip=0 / chroma_qp_offset=-2 / threads=24 / lookahead_threads=6 / sliced_threads=0 / nr=0 / decimate=1 / interlaced=0 / bluray_compat=0 / constrained_intra=0 / bframes=16 / b_pyramid=2 / b_adapt=2 / b_bias=0 / direct=3 / weightb=1 / open_gop=0 / weightp=2 / keyint=240 / keyint_min=24 / scenecut=40 / intra_refresh=0 / rc_lookahead=60 / rc=crf / mbtree=1 / crf=20.0 / qcomp=0.60 / qpmin=0 / qpmax=69 / qpstep=4 / vbv_maxrate=62500 / vbv_bufsize=78125 / crf_max=0.0 / nal_hrd=none / filler=0 / ip_ratio=1.40 / aq=1:1.00
    Default                     : Yes
    Forced                      : No
    Color range                 : Limited
    Color primaries             : BT.709
    Transfer characteristics    : BT.709
    Matrix coefficients         : BT.709

    Audio #1
    ID                          : 2
    Format                      : AC-3
    Format/Info                 : Audio Coding 3
    Commercial name             : Dolby Digital
    Codec ID                    : A_AC3
    Duration                    : 1 h 36 min
    Bit rate mode               : Constant
    Bit rate                    : 640 kb/s
    Channel(s)                  : 6 channels
    Channel layout              : L R C LFE Ls Rs
    Sampling rate               : 48.0 kHz
    Frame rate                  : 31.250 FPS (1536 SPF)
    Compression mode            : Lossy
    Stream size                 : 444 MiB (4%)
    Language                    : Spanish
    Service kind                : Complete Main
    Default                     : Yes
    Forced                      : No

    Audio #2
    ID                          : 3
    Format                      : AC-3
    Format/Info                 : Audio Coding 3
    Commercial name             : Dolby Digital
    Codec ID                    : A_AC3
    Duration                    : 1 h 36 min
    Bit rate mode               : Constant
    Bit rate                    : 640 kb/s
    Channel(s)                  : 6 channels
    Channel layout              : L R C LFE Ls Rs
    Sampling rate               : 48.0 kHz
    Frame rate                  : 31.250 FPS (1536 SPF)
    Compression mode            : Lossy
    Stream size                 : 444 MiB (4%)
    Language                    : English
    Service kind                : Complete Main
    Default                     : No
    Forced                      : No

    Text
    ID                          : 4
    Format                      : PGS
    Muxing mode                 : zlib
    Codec ID                    : S_HDMV/PGS
    Codec ID/Info               : Picture based subtitle format used on BDs/HD-DVDs
    Duration                    : 1 h 32 min
    Bit rate                    : 46.3 kb/s
    Count of elements           : 2522
    Stream size                 : 30.7 MiB (0%)
    Language                    : Spanish
    Default                     : No
    Forced                      : No

    Menu
    00:00:00.000                : :Chapter 1
    00:05:29.371                : :Chapter 2
    00:13:39.444                : :Chapter 3
    00:18:09.005                : :Chapter 4
    00:23:55.601                : :Chapter 5
    00:29:31.061                : :Chapter 6
    00:35:12.402                : :Chapter 7
    00:40:07.155                : :Chapter 8
    00:44:10.940                : :Chapter 9
    00:47:50.201                : :Chapter 10
    00:51:44.602                : :Chapter 11
    00:56:16.707                : :Chapter 12
    01:02:00.008                : :Chapter 13
    01:05:46.609                : :Chapter 14
    01:08:31.316                : :Chapter 15
    01:16:04.435                : :Chapter 16
    01:21:16.914                : :Chapter 17
    01:26:26.640                : :Chapter 18
    01:31:38.952                : :Chapter 19
     

  • Peso: 9.66 GiB

Sinopsis

Una joven adolescente, Cady, acostumbrada a vivir en África con sus padres, zoólogos, se encuentra una nueva jungla cuando se muda a Illinois. Allí acude a la escuela pública, donde se enamorará del ex-novio de la chica más popular del colegio. Las chicas comenzarán a hacer la vida imposible a Cady, y ésta no tendrá otro remedio que usar sus mismas tácticas para mantenerse a flote.

Ficha técnica

Video trailer de la película

Enlaces de descarga

Rip de Bluray

Descargar Mean Girls (2004) Full HD 1080p Latino – CMHDD




Aportes de DPeliculasHDmega la pass es:dpeliculashdmega.org Aportes de CinemaniaHD la pass es:cinemaniahdd.com
Guardado en : Comedia

Películas relacionadas

  • DC Liga De Supermascotas (2022) HD 1080p Latino

    DC Liga De Supermascotas (2022) HD 1080p Latino

    2022
    DC Liga De Supermascotas (2022) HD 1080p Latino

    1h 45m 2022

    Descargar DC Liga De Supermascotas (2022) HD 1080p Latino. Krypto el Superperro y Superman son amigos...

    Director: Sam Levine

    Género: Acción

    Actores: Yvette Nicole Brown

  • Rick and Morty (2022) Temporada 6 WEB-DL 1080p Latino

    Rick and Morty (2022) Temporada 6 WEB-DL 1080p Latino

    2013
    Rick and Morty (2022) Temporada 6 WEB-DL 1080p Latino

    0h 22m 2013

    Comedia animada que narra las aventuras de un científico loco Rick Sánchez, que regresa después de...

    Director: Justin Roiland

    Género: Action & Adventure

    Actores: Spencer Grammer

  • Tremors (1990) REMUX 4K HDR Latino – CMHDD

    Tremors (1990) REMUX 4K HDR Latino – CMHDD

    1990
    Tremors (1990) REMUX 4K HDR Latino – CMHDD

    1h 35m 1990

    En Perfección, un pequeño pueblo al borde del desierto de Nevada, algo parece suceder debajo de la...

    Director: Susan Bierbaum

    Género: Acción

    Actores: Victor Wong

descargar Mean Girls (2004) Full HD 1080p Latino – CMHDD Full 1080p 1080p gratis, Mean Girls (2004) Full HD 1080p Latino – CMHDD Full 1080p mega 1 link, Mean Girls (2004) Full HD 1080p Latino – CMHDD Full 1080p pelicula completa, descargar Mean Girls (2004) Full HD 1080p Latino – CMHDD Full 1080p gratis en mega.

Mean Girls (2004) Full HD 1080p Latino – CMHDD pelicula full hd, Mean Girls (2004) Full HD 1080p Latino – CMHDD mega latino, Mean Girls (2004) Full HD 1080p Latino – CMHDD 4k latino, Mean Girls (2004) Full HD 1080p Latino – CMHDD pelicula completa, Mean Girls (2004) Full HD 1080p Latino – CMHDD descargar gratis, descargar Mean Girls (2004) Full HD 1080p Latino – CMHDD pelicula latino, Mean Girls (2004) Full HD 1080p Latino – CMHDD 1 link mega, Mean Girls (2004) Full HD 1080p Latino – CMHDD 1 link google drive, Mean Girls (2004) Full HD 1080p Latino – CMHDD hd 1080p latino.
Comentarios 0