×

¿Problemas para descargar con Mozilla, EDGE? Deshabilita la opción "Abrir vinculos en una pestaña nueva" tal como lo muestra ésta imagen.

Mea Culpa (2024) NF WEB-DL 1080p Latino

42 vistas

Información de Mea Culpa (2024) NF WEB-DL 1080p Latino

Datos de la película

  • Calidad: WEBDL
  • Audio: Español Latino E-AC3 5.1 Netflix - Ingles E-AC3 5.1 Netflix
  • Subtitulos: Español Latino SRT- FORZADOS SRT
  • Resolución: 1920x1080p
  • Formato: MKV
  • Codec: H.264
  • Encoder: Melkor
  • Mediainfo: Clic para Mostrar Datos Ver
  • Mea Culpa (2024) NF WEB 1080p Latino.mkv
    Format                      : Matroska
    Format version              : Version 4
    File size                   : 5.32 GiB
    Duration                    : 2 h 0 min
    Overall bit rate mode       : Variable
    Overall bit rate            : 6 326 kb/s
    Movie name                  : Mea Culpa (2024) CinemaniaHDD.Net
    Encoded date                : UTC 2024-03-06 06:20:33
    Writing application         : mkvmerge v56.1.0 ('My Friend') 64-bit
    Writing library             : libebml v1.4.2 + libmatroska v1.6.4
    Attachments                 : CINEMANIAHD.png
    Site                        : CinemaniaHDD.Net
    Uploader                    : Melkor

    Video
    ID                          : 1
    Format                      : AVC
    Format/Info                 : Advanced Video Codec
    Format profile              : Main@L4
    Format settings             : CABAC / 3 Ref Frames
    Format settings, CABAC      : Yes
    Format settings, Reference  : 3 frames
    Codec ID                    : V_MPEG4/ISO/AVC
    Duration                    : 2 h 0 min
    Bit rate mode               : Variable
    Bit rate                    : 5 000 kb/s
    Maximum bit rate            : 7 500 kb/s
    Width                       : 1 920 pixels
    Height                      : 1 080 pixels
    Display aspect ratio        : 16:9
    Frame rate mode             : Constant
    Frame rate                  : 23.976 (24000/1001) FPS
    Color space                 : YUV
    Chroma subsampling          : 4:2:0
    Bit depth                   : 8 bits
    Scan type                   : Progressive
    Bits/(Pixel*Frame)          : 0.101
    Stream size                 : 4.13 GiB (78%)
    Title                       : Web HD1080p [CinemaniaHDD]
    Writing library             : x264 core 148 r2727 7d026e8
    Encoding settings           : cabac=1 / ref=3 / deblock=1:0:0 / analyse=0x1:0x111 / me=umh / subme=10 / psy=1 / psy_rd=1.00:0.00 / mixed_ref=1 / me_range=24 / chroma_me=1 / trellis=2 / 8x8dct=0 / cqm=0 / deadzone=21,11 / fast_pskip=1 / chroma_qp_offset=-2 / threads=6 / lookahead_threads=1 / sliced_threads=0 / nr=0 / decimate=1 / interlaced=0 / bluray_compat=0 / stitchable=1 / constrained_intra=0 / bframes=2 / b_pyramid=0 / b_adapt=2 / b_bias=0 / direct=3 / weightb=1 / open_gop=0 / weightp=2 / keyint=240 / keyint_min=121 / scenecut=0 / intra_refresh=0 / rc_lookahead=48 / rc=2pass / mbtree=1 / bitrate=5000 / ratetol=1.0 / qcomp=0.50 / qpmin=6 / qpmax=51 / qpstep=4 / cplxblur=20.0 / qblur=0.5 / vbv_maxrate=7500 / vbv_bufsize=10000 / nal_hrd=vbr / filler=0 / ip_ratio=1.40 / aq=1:1.00
    Default                     : Yes
    Forced                      : Yes

    Audio #1
    ID                          : 2
    Format                      : E-AC-3
    Format/Info                 : Enhanced AC-3
    Commercial name             : Dolby Digital Plus
    Codec ID                    : A_EAC3
    Duration                    : 2 h 0 min
    Bit rate mode               : Constant
    Bit rate                    : 640 kb/s
    Channel(s)                  : 6 channels
    Channel layout              : L R C LFE Ls Rs
    Sampling rate               : 48.0 kHz
    Frame rate                  : 31.250 FPS (1536 SPF)
    Compression mode            : Lossy
    Stream size                 : 551 MiB (10%)
    Title                       : Español Latino [CinemaniaHDD]
    Language                    : Spanish
    Service kind                : Complete Main
    Default                     : Yes
    Forced                      : Yes

    Audio #2
    ID                          : 3
    Format                      : E-AC-3 JOC
    Format/Info                 : Enhanced AC-3 with Joint Object Coding
    Commercial name             : Dolby Digital Plus with Dolby Atmos
    Codec ID                    : A_EAC3
    Duration                    : 2 h 0 min
    Bit rate mode               : Constant
    Bit rate                    : 768 kb/s
    Channel(s)                  : 6 channels
    Channel layout              : L R C LFE Ls Rs
    Sampling rate               : 48.0 kHz
    Frame rate                  : 31.250 FPS (1536 SPF)
    Compression mode            : Lossy
    Stream size                 : 661 MiB (12%)
    Title                       : Ingles [CinemaniaHDD]
    Language                    : English
    Service kind                : Complete Main
    Default                     : No
    Forced                      : No
    Complexity index            : 16
    Number of dynamic objects   : 15
    Bed channel count           : 1 channel
    Bed channel configuration   : LFE

    Text #1
    ID                          : 4
    Format                      : UTF-8
    Codec ID                    : S_TEXT/UTF8
    Codec ID/Info               : UTF-8 Plain Text
    Duration                    : 1 h 38 min
    Bit rate                    : 0 b/s
    Count of elements           : 6
    Stream size                 : 144 Bytes (0%)
    Title                       : Forzados-SRT [CinemaniaHDD]
    Language                    : Spanish
    Default                     : Yes
    Forced                      : Yes

    Text #2
    ID                          : 5
    Format                      : UTF-8
    Codec ID                    : S_TEXT/UTF8
    Codec ID/Info               : UTF-8 Plain Text
    Duration                    : 1 h 57 min
    Bit rate                    : 47 b/s
    Count of elements           : 1499
    Stream size                 : 40.6 KiB (0%)
    Title                       : Español-SRT [CinemaniaHDD]
    Language                    : Spanish
    Default                     : No
    Forced                      : No

    Text #3
    ID                          : 6
    Format                      : UTF-8
    Codec ID                    : S_TEXT/UTF8
    Codec ID/Info               : UTF-8 Plain Text
    Duration                    : 1 h 57 min
    Bit rate                    : 63 b/s
    Count of elements           : 1735
    Stream size                 : 54.4 KiB (0%)
    Title                       : Ingles-SRT [CinemaniaHDD]
    Language                    : English
    Default                     : No
    Forced                      : No

  • Peso: 5.32 GiB

Sinopsis

Descargar Mea Culpa (2024) NF WEB-DL 1080p Latino. Después de aceptar el caso de un artista acusado de asesinato, una abogada defensora se ve forzada a elegir entre su familia, el deber y sus instintos más básicos.

Ficha técnica

  • Titulo original: Mea Culpa
  • Fecha de lanzamiento: 22-02-2024 (United States of America)
  • Director: Tyler Perry
  • Género: Netflix, Suspenso

Video trailer de la película

Enlaces de descarga

Rip de Bluray

Descargar Mea Culpa (2024) NF WEB-DL 1080p Latino




Aportes de DPeliculasHDmega la pass es:dpeliculashdmega.org Aportes de CinemaniaHD la pass es:cinemaniahdd.com Aportes recientes:cinemaniahdd.net
Guardado en : Netflix , Suspenso

Películas relacionadas

  • Godzilla vs. Kong (2021) REMUX 4K HDR Latino – CMHDD

    Godzilla vs. Kong (2021) REMUX 4K HDR Latino – CMHDD

    2021
    Godzilla vs. Kong (2021) REMUX 4K HDR Latino – CMHDD

    1h 54m 2021

    Godzilla y Kong, dos de las fuerzas más poderosas de un planeta habitado por todo tipo de aterradoras...

    Director: Thomas Robinson Harper

    Género: Acción

    Actores: Victoria Liu

  • Aguas siniestras (2024) HD 1080p Latino

    Aguas siniestras (2024) HD 1080p Latino

    2024
    Aguas siniestras (2024) HD 1080p Latino

    1h 56m 2024

    Descargar Aguas siniestras (2024) HD 1080p Latino. Ray Waller, una estrella del béisbol obligada a retirarse...

    Director: Phil DeSanti

    Género: HD 1080p

    Actores: Wyatt Russell

  • Aguas siniestras (2024) PLACEBO Full HD 1080p Latino

    Aguas siniestras (2024) PLACEBO Full HD 1080p Latino

    2024
    Aguas siniestras (2024) PLACEBO Full HD 1080p Latino

    1h 56m 2024

    Descargar Aguas siniestras (2024) PLACEBO Full HD 1080p Latino. Ray Waller, una estrella del béisbol...

    Director: Phil DeSanti

    Género: FULL 1080p Plateadas

    Actores: Wyatt Russell

  • Aguas siniestras (2024) REMUX 1080p Latino

    Aguas siniestras (2024) REMUX 1080p Latino

    2024
    Aguas siniestras (2024) REMUX 1080p Latino

    1h 56m 2024

    Descargar Aguas siniestras (2024) REMUX 1080p Latino. Ray Waller, una estrella del béisbol obligada...

    Director: Phil DeSanti

    Género: Remux

    Actores: Wyatt Russell

  • The Impossible (2012) WEB-DL 1080p Latino – CMHDD

    The Impossible (2012) WEB-DL 1080p Latino – CMHDD

    2012
    The Impossible (2012) WEB-DL 1080p Latino – CMHDD

    1h 47m 2012

    María, Henry y sus tres hijos comienzan sus vacaciones de invierno en Tailandia en busca de unos días...

    Director: J. A. Bayona

    Género: Aventura

    Actores: Zoe Popham

descargar Mea Culpa (2024) NF WEB-DL 1080p Latino WEBDL 1080p gratis, Mea Culpa (2024) NF WEB-DL 1080p Latino WEBDL mega 1 link, Mea Culpa (2024) NF WEB-DL 1080p Latino WEBDL pelicula completa, descargar Mea Culpa (2024) NF WEB-DL 1080p Latino WEBDL gratis en mega.

Mea Culpa (2024) NF WEB-DL 1080p Latino pelicula full hd, Mea Culpa (2024) NF WEB-DL 1080p Latino mega latino, Mea Culpa (2024) NF WEB-DL 1080p Latino 4k latino, Mea Culpa (2024) NF WEB-DL 1080p Latino pelicula completa, Mea Culpa (2024) NF WEB-DL 1080p Latino descargar gratis, descargar Mea Culpa (2024) NF WEB-DL 1080p Latino pelicula latino, Mea Culpa (2024) NF WEB-DL 1080p Latino 1 link mega, Mea Culpa (2024) NF WEB-DL 1080p Latino 1 link google drive, Mea Culpa (2024) NF WEB-DL 1080p Latino hd 1080p latino.
Comentarios 0