×

¿Problemas para descargar con Mozilla, EDGE? Deshabilita la opción "Abrir vinculos en una pestaña nueva" tal como lo muestra ésta imagen.

Me, Myself & Irene (2000) REMUX 1080p Latino – CMHDD

125 vistas

Información de Me, Myself & Irene (2000) REMUX 1080p Latino – CMHDD

Datos de la película

  • Calidad:
  • Audio: Español Latino AC3 5.1 WEB-DL - Ingles DTS 5.1 BLURAY
  • Subtitulos: Español Latino SRT- FORZADOS SRT
  • Resolución: 19201080p
  • Formato: MKV
  • Codec: H.264
  • Encoder: Dracarys
  • Mediainfo: Clic para Mostrar Datos Ver
  • Format                      : Matroska
    Format version              : Version 4
    File size                   : 32.5 GiB
    Duration                    : 1 h 56 min
    Overall bit rate mode       : Variable
    Overall bit rate            : 39.9 Mb/s
    Movie name                  : Me, Myself & Irene (2000) REMUX 1080p Latino - CMHDD
    Encoded date                : UTC 2023-11-25 23:37:49
    Writing application         : mkvmerge v47.0.0 ('Black Flag') 64-bit
    Writing library             : libebml v1.3.10 + libmatroska v1.5.2

    Video
    ID                          : 1
    ID in the original source m : 4113 (0x1011)
    Format                      : MPEG Video
    Format version              : Version 2
    Format profile              : Main@High
    Format settings             : CustomMatrix / BVOP
    Format settings, BVOP       : Yes
    Format settings, Matrix     : Custom
    Format settings, GOP        : Variable
    Codec ID                    : V_MPEG2
    Codec ID/Info               : MPEG 1 or 2 Video
    Duration                    : 1 h 56 min
    Bit rate mode               : Variable
    Bit rate                    : 35.4 Mb/s
    Maximum bit rate            : 38.5 Mb/s
    Width                       : 1 920 pixels
    Height                      : 1 080 pixels
    Display aspect ratio        : 16:9
    Frame rate mode             : Constant
    Frame rate                  : 23.976 (24000/1001) FPS
    Color space                 : YUV
    Chroma subsampling          : 4:2:0
    Bit depth                   : 8 bits
    Scan type                   : Progressive
    Compression mode            : Lossy
    Bits/(Pixel*Frame)          : 0.712
    Time code of first frame    : 00:00:00:00
    Time code source            : Group of pictures header
    GOP, Open/Closed            : Open
    GOP, Open/Closed of first f : Closed
    Stream size                 : 28.8 GiB (89%)
    Default                     : Yes
    Forced                      : No
    Original source medium      : Blu-ray

    Audio #1
    ID                          : 2
    ID in the original source m : 4352 (0x1100)
    Format                      : DTS XLL
    Format/Info                 : Digital Theater Systems
    Commercial name             : DTS-HD Master Audio
    Codec ID                    : A_DTS
    Duration                    : 1 h 56 min
    Bit rate mode               : Variable
    Bit rate                    : 4 234 kb/s
    Channel(s)                  : 6 channels
    Channel layout              : C L R Ls Rs LFE
    Sampling rate               : 48.0 kHz
    Frame rate                  : 93.750 FPS (512 SPF)
    Bit depth                   : 24 bits
    Compression mode            : Lossless
    Stream size                 : 3.45 GiB (11%)
    Language                    : English
    Default                     : No
    Forced                      : No
    Original source medium      : Blu-ray

    Audio #2
    ID                          : 3
    Format                      : E-AC-3
    Format/Info                 : Enhanced AC-3
    Commercial name             : Dolby Digital Plus
    Codec ID                    : A_EAC3
    Duration                    : 1 h 56 min
    Bit rate mode               : Constant
    Bit rate                    : 256 kb/s
    Channel(s)                  : 6 channels
    Channel layout              : L R C LFE Ls Rs
    Sampling rate               : 48.0 kHz
    Frame rate                  : 31.250 FPS (1536 SPF)
    Compression mode            : Lossy
    Delay relative to video     : 20 ms
    Stream size                 : 213 MiB (1%)
    Language                    : Spanish
    Service kind                : Complete Main
    Default                     : Yes
    Forced                      : No

    Text #1
    ID                          : 4
    Format                      : UTF-8
    Codec ID                    : S_TEXT/UTF8
    Codec ID/Info               : UTF-8 Plain Text
    Duration                    : 1 h 29 min
    Bit rate                    : 0 b/s
    Frame rate                  : 0.001 FPS
    Count of elements           : 4
    Stream size                 : 134 Bytes (0%)
    Language                    : Spanish
    Default                     : Yes
    Forced                      : No

    Text #2
    ID                          : 5
    Format                      : UTF-8
    Codec ID                    : S_TEXT/UTF8
    Codec ID/Info               : UTF-8 Plain Text
    Duration                    : 1 h 56 min
    Bit rate                    : 63 b/s
    Frame rate                  : 0.248 FPS
    Count of elements           : 1728
    Stream size                 : 54.2 KiB (0%)
    Language                    : Spanish
    Default                     : No
    Forced                      : No

    Text #3
    ID                          : 6
    ID in the original source m : 4609 (0x1201)
    Format                      : PGS
    Muxing mode                 : zlib
    Codec ID                    : S_HDMV/PGS
    Codec ID/Info               : Picture based subtitle format used on BDs/HD-DVDs
    Duration                    : 1 h 54 min
    Bit rate                    : 28.6 kb/s
    Frame rate                  : 0.366 FPS
    Count of elements           : 2514
    Stream size                 : 23.4 MiB (0%)
    Language                    : Spanish
    Default                     : No
    Forced                      : No
    Original source medium      : Blu-ray

    Text #4
    ID                          : 7
    ID in the original source m : 4610 (0x1202)
    Format                      : PGS
    Muxing mode                 : zlib
    Codec ID                    : S_HDMV/PGS
    Codec ID/Info               : Picture based subtitle format used on BDs/HD-DVDs
    Duration                    : 1 h 29 min
    Bit rate                    : 395 b/s
    Frame rate                  : 0.004 FPS
    Count of elements           : 22
    Stream size                 : 259 KiB (0%)
    Language                    : Spanish
    Default                     : No
    Forced                      : No
    Original source medium      : Blu-ray

    Menu
    00:00:00.000                : en:Capítulo 01
    00:01:58.284                : en:Capítulo 02
    00:09:50.089                : en:Capítulo 03
    00:13:13.209                : en:Capítulo 04
    00:17:45.147                : en:Capítulo 05
    00:24:56.953                : en:Capítulo 06
    00:34:29.942                : en:Capítulo 07
    00:36:57.215                : en:Capítulo 08
    00:41:04.545                : en:Capítulo 09
    00:49:30.092                : en:Capítulo 10
    00:54:41.569                : en:Capítulo 11
    00:59:14.259                : en:Capítulo 12
    01:05:25.421                : en:Capítulo 13
    01:14:40.017                : en:Capítulo 14
    01:19:34.311                : en:Capítulo 15
    01:25:06.893                : en:Capítulo 16
    01:30:55.700                : en:Capítulo 17
    01:40:29.940                : en:Capítulo 18
    01:48:53.902                : en:Capítulo 19
    01:55:52.862                : en:Capítulo 20

     

  • Peso: 32.5 GiB

Sinopsis

Charlie es un inocente y amable policía de Rhode Island que es todo un caballero, además de un abnegado padre soltero de tres hijos de color que su esposa tuvo tras una aventura. Pero un día Charlie, conocido por su buen carácter, no soporta más que le tomen por blando y sufre de repente un trastorno de personalidad, convirtiéndose en alguien completamente distinto, en el que sale a relucir su hiperagresivo álter ego…

Ficha técnica

Video trailer de la película

Enlaces de descarga

Rip de Bluray

Descargar Me, Myself & Irene (2000) REMUX 1080p Latino – CMHDD




Aportes de DPeliculasHDmega la pass es:dpeliculashdmega.org Aportes de CinemaniaHD la pass es:cinemaniahdd.com Aportes recientes:cinemaniahdd.net
Guardado en : Comedia

Películas relacionadas

  • Nada que ver (2023) WEB-DL 1080p Latino

    Nada que ver (2023) WEB-DL 1080p Latino

    2023
    Nada que ver (2023) WEB-DL 1080p Latino

    1h 30m 2023

    Descargar Nada que ver (2023) WEB-DL 1080p Latino. Después de que Carlos tiene la tarea de cuidar a...

    Director: Kenya Marquez

    Género: Comedia

    Actores: Rebecca Jones

  • El Roomie (2024) WEB-DL 1080p Latino

    El Roomie (2024) WEB-DL 1080p Latino

    2024
    El Roomie (2024) WEB-DL 1080p Latino

    1h 39m 2024

    Descargar El Roomie (2024) WEB-DL 1080p Latino. Vivi se ve obligada a buscar un roomie para pagar la...

    Director: Pedro Pablo Ibarra

    Género: Comedia

    Actores: Victoria Ruffo

  • Lisa Frankenstein (2024) HD 1080p Latino

    Lisa Frankenstein (2024) HD 1080p Latino

    2024
    Lisa Frankenstein (2024) HD 1080p Latino

    1h 42m 2024

    Descargar Lisa Frankenstein (2024) HD 1080p Latino. En 1989, una impopular chica de secundaria llamada...

    Director: Zelda Williams

    Género: Comedia

    Actores: Wendy Miklovic

descargar Me, Myself & Irene (2000) REMUX 1080p Latino – CMHDD 1080p gratis, Me, Myself & Irene (2000) REMUX 1080p Latino – CMHDD mega 1 link, Me, Myself & Irene (2000) REMUX 1080p Latino – CMHDD pelicula completa, descargar Me, Myself & Irene (2000) REMUX 1080p Latino – CMHDD gratis en mega.

Me, Myself & Irene (2000) REMUX 1080p Latino – CMHDD pelicula full hd, Me, Myself & Irene (2000) REMUX 1080p Latino – CMHDD mega latino, Me, Myself & Irene (2000) REMUX 1080p Latino – CMHDD 4k latino, Me, Myself & Irene (2000) REMUX 1080p Latino – CMHDD pelicula completa, Me, Myself & Irene (2000) REMUX 1080p Latino – CMHDD descargar gratis, descargar Me, Myself & Irene (2000) REMUX 1080p Latino – CMHDD pelicula latino, Me, Myself & Irene (2000) REMUX 1080p Latino – CMHDD 1 link mega, Me, Myself & Irene (2000) REMUX 1080p Latino – CMHDD 1 link google drive, Me, Myself & Irene (2000) REMUX 1080p Latino – CMHDD hd 1080p latino.
Comentarios 0