×

¿Problemas para descargar con Mozilla, EDGE? Deshabilita la opción "Abrir vinculos en una pestaña nueva" tal como lo muestra ésta imagen.

Me Llamo Venganza (2022) NF WEB-DL 1080p Latino

60 vistas

Información de Me Llamo Venganza (2022) NF WEB-DL 1080p Latino

Datos de la película

  • Calidad: 1080p
  • Audio: Español Latino AC3 5.1 WEB-DL - Ingles AC3 5.1 WEB-DL
  • Subtitulos: Español Latino SRT- FORZADOS SRT
  • Resolución: 1920x1080
  • Formato: MKV
  • Codec: H.264
  • Encoder: cinemaniahdd
  • Mediainfo: Clic para Mostrar Datos Ver
  • Me Llamo Venganza (2022) NF WEB-DL 1080p Latino [CNMNHDD].mkv
    Format                      : Matroska
    Format version              : Version 4
    File size                   : 3.58 GiB
    Duration                    : 1 h 32 min
    Overall bit rate mode       : Variable
    Overall bit rate            : 5 571 kb/s
    Movie name                  : Me Llamo Venganza (2022) [1080p] - CinemaniaHDD.Net
    Encoded date                : UTC 2022-12-01 01:49:12
    Writing application         : mkvmerge v56.1.0 ('My Friend') 64-bit
    Writing library             : libebml v1.4.2 + libmatroska v1.6.4

    Video
    ID                          : 1
    Format                      : AVC
    Format/Info                 : Advanced Video Codec
    Format profile              : Main@L4
    Format settings             : CABAC / 3 Ref Frames
    Format settings, CABAC      : Yes
    Format settings, Reference  : 3 frames
    Codec ID                    : V_MPEG4/ISO/AVC
    Duration                    : 1 h 32 min
    Bit rate mode               : Variable
    Bit rate                    : 5 000 kb/s
    Maximum bit rate            : 7 500 kb/s
    Width                       : 1 920 pixels
    Height                      : 1 080 pixels
    Display aspect ratio        : 16:9
    Frame rate mode             : Constant
    Frame rate                  : 24.000 FPS
    Color space                 : YUV
    Chroma subsampling          : 4:2:0
    Bit depth                   : 8 bits
    Scan type                   : Progressive
    Bits/(Pixel*Frame)          : 0.100
    Stream size                 : 3.09 GiB (86%)
    Title                       : CinemaniaHDD
    Writing library             : x264 core 148 r2727 7d026e8
    Encoding settings           : cabac=1 / ref=3 / deblock=1:0:0 / analyse=0x1:0x111 / me=umh / subme=10 / psy=1 / psy_rd=1.00:0.00 / mixed_ref=1 / me_range=24 / chroma_me=1 / trellis=2 / 8x8dct=0 / cqm=0 / deadzone=21,11 / fast_pskip=1 / chroma_qp_offset=-2 / threads=8 / lookahead_threads=1 / sliced_threads=0 / nr=0 / decimate=1 / interlaced=0 / bluray_compat=0 / stitchable=1 / constrained_intra=0 / bframes=2 / b_pyramid=0 / b_adapt=2 / b_bias=0 / direct=3 / weightb=1 / open_gop=0 / weightp=2 / keyint=48 / keyint_min=25 / scenecut=0 / intra_refresh=0 / rc_lookahead=48 / rc=2pass / mbtree=1 / bitrate=5000 / ratetol=1.0 / qcomp=0.50 / qpmin=6 / qpmax=51 / qpstep=4 / cplxblur=20.0 / qblur=0.5 / vbv_maxrate=7500 / vbv_bufsize=10000 / nal_hrd=vbr / filler=0 / ip_ratio=1.40 / aq=1:1.00
    Default                     : Yes
    Forced                      : No

    Audio #1
    ID                          : 2
    Format                      : AC-3
    Format/Info                 : Audio Coding 3
    Commercial name             : Dolby Digital
    Codec ID                    : A_AC3
    Duration                    : 1 h 32 min
    Bit rate mode               : Constant
    Bit rate                    : 384 kb/s
    Channel(s)                  : 6 channels
    Channel layout              : L R C LFE Ls Rs
    Sampling rate               : 48.0 kHz
    Frame rate                  : 31.250 FPS (1536 SPF)
    Compression mode            : Lossy
    Stream size                 : 253 MiB (7%)
    Title                       : Español latino [CinemaniaHDD]
    Language                    : Spanish
    Service kind                : Complete Main
    Default                     : Yes
    Forced                      : No

    Audio #2
    ID                          : 3
    Format                      : AC-3
    Format/Info                 : Audio Coding 3
    Commercial name             : Dolby Digital
    Codec ID                    : A_AC3
    Duration                    : 1 h 32 min
    Bit rate mode               : Constant
    Bit rate                    : 384 kb/s
    Channel(s)                  : 6 channels
    Channel layout              : L R C LFE Ls Rs
    Sampling rate               : 48.0 kHz
    Frame rate                  : 31.250 FPS (1536 SPF)
    Compression mode            : Lossy
    Stream size                 : 253 MiB (7%)
    Title                       : Inglés [CinemaniaHDD]
    Language                    : English
    Service kind                : Complete Main
    Default                     : No
    Forced                      : No

    Text #1
    ID                          : 4
    Format                      : UTF-8
    Codec ID                    : S_TEXT/UTF8
    Codec ID/Info               : UTF-8 Plain Text
    Duration                    : 1 h 29 min
    Bit rate                    : 2 b/s
    Count of elements           : 71
    Stream size                 : 1.67 KiB (0%)
    Title                       : Forzados [CinemaniaHDD]
    Language                    : Spanish
    Default                     : Yes
    Forced                      : Yes

    Text #2
    ID                          : 5
    Format                      : UTF-8
    Codec ID                    : S_TEXT/UTF8
    Codec ID/Info               : UTF-8 Plain Text
    Duration                    : 1 h 30 min
    Bit rate                    : 32 b/s
    Count of elements           : 782
    Stream size                 : 21.5 KiB (0%)
    Title                       : Español latino [CinemaniaHDD]
    Language                    : Spanish
    Default                     : No
    Forced                      : No

    Text #3
    ID                          : 6
    Format                      : UTF-8
    Codec ID                    : S_TEXT/UTF8
    Codec ID/Info               : UTF-8 Plain Text
    Duration                    : 1 h 30 min
    Bit rate                    : 59 b/s
    Count of elements           : 1512
    Stream size                 : 39.0 KiB (0%)
    Title                       : Inglés [CinemaniaHDD]
    Language                    : English
    Default                     : No
    Forced                      : No

     

  • Peso: 3.58 GiB

Sinopsis

Cuando unos enemigos del pasado asesinan a su esposa y a su cuñado, un antiguo sicario de la mafia y su hija escapan a Milán para planear su venganza.

Ficha técnica

Video trailer de la película

Enlaces de descarga

Rip de Bluray

Descargar Me Llamo Venganza (2022) NF WEB-DL 1080p Latino




Aportes de DPeliculasHDmega la pass es:dpeliculashdmega.org Aportes de CinemaniaHD la pass es:cinemaniahdd.com
Guardado en : Acción , Aventura , Crimen , Misterio , Netflix , Suspenso

Películas relacionadas

  • Mi amigo el dragón (2016) Full HD 1080p Latino

    Mi amigo el dragón (2016) Full HD 1080p Latino

    2016
    Mi amigo el dragón (2016) Full HD 1080p Latino

    1h 43m 2016

    Descargar Mi amigo el dragón (2016) Full HD 1080p Latino. Durante años el Sr. Meacham, un viejo tallador...

    Director: Joe Nolan

    Género: Aventura

    Actores: William J. Rawbone

  • Mi amigo el dragón (2016) REMUX 1080p Latino

    Mi amigo el dragón (2016) REMUX 1080p Latino

    2016
    Mi amigo el dragón (2016) REMUX 1080p Latino

    1h 43m 2016

    Descargar Mi amigo el dragón (2016) REMUX 1080p Latino. Durante años el Sr. Meacham, un viejo tallador...

    Director: Joe Nolan

    Género: Aventura

    Actores: William J. Rawbone

  • Lucy (2014) REMUX 4K HDR Latino – CMHDD

    Lucy (2014) REMUX 4K HDR Latino – CMHDD

    2014
    Lucy (2014) REMUX 4K HDR Latino – CMHDD

    1h 30m 2014

    Lucy, una joven obligada a ejercer de mula de una nueva y potente droga, adquiere de repente enormes...

    Director: Luc Besson

    Género: Acción

    Actores: Wolfgang Pissors

descargar Me Llamo Venganza (2022) NF WEB-DL 1080p Latino 1080p 1080p gratis, Me Llamo Venganza (2022) NF WEB-DL 1080p Latino 1080p mega 1 link, Me Llamo Venganza (2022) NF WEB-DL 1080p Latino 1080p pelicula completa, descargar Me Llamo Venganza (2022) NF WEB-DL 1080p Latino 1080p gratis en mega.

Me Llamo Venganza (2022) NF WEB-DL 1080p Latino pelicula full hd, Me Llamo Venganza (2022) NF WEB-DL 1080p Latino mega latino, Me Llamo Venganza (2022) NF WEB-DL 1080p Latino 4k latino, Me Llamo Venganza (2022) NF WEB-DL 1080p Latino pelicula completa, Me Llamo Venganza (2022) NF WEB-DL 1080p Latino descargar gratis, descargar Me Llamo Venganza (2022) NF WEB-DL 1080p Latino pelicula latino, Me Llamo Venganza (2022) NF WEB-DL 1080p Latino 1 link mega, Me Llamo Venganza (2022) NF WEB-DL 1080p Latino 1 link google drive, Me Llamo Venganza (2022) NF WEB-DL 1080p Latino hd 1080p latino.
Comentarios 0