×

¿Problemas para descargar con Mozilla, EDGE? Deshabilita la opción "Abrir vinculos en una pestaña nueva" tal como lo muestra ésta imagen.

Yo Antes de ti (2016) 4K UHD SDR WEB Latino

341 vistas

Información de Yo Antes de ti (2016) 4K UHD SDR WEB Latino

Datos de la película

  • Calidad: WEBDL
  • Audio: Se especifica abajo de la Sinopsis
  • Subtitulos: Español Latino SRT - Ingles SRT
  • Resolución: 3840x2160p
  • Formato: MKV
  • Codec: HEVC
  • Encoder: CinefiloCool
  • Mediainfo: Clic para Mostrar Datos Ver
  • Yo Antes De Ti (2016) 4K UHD SDR WEB Latino-CMHDD.mkv
    Format                      : Matroska
    Format version              : Version 4
    File size                   : 13.0 GiB
    Duration                    : 1 h 50 min
    Overall bit rate            : 16.9 Mb/s
    Movie name                  : Me Before You (2016) CinemaniaHDD.Net
    Encoded date                : UTC 2020-07-29 03:27:12
    Writing application         : mkvmerge v46.0.0 ('No Deeper Escape') 64-bit
    Writing library             : libebml v1.3.10 + libmatroska v1.5.2
    Attachments                 : CINEMANIAHD.png

    Video
    ID                          : 1
    Format                      : HEVC
    Format/Info                 : High Efficiency Video Coding
    Format profile              : Main@L5@High
    Codec ID                    : V_MPEGH/ISO/HEVC
    Duration                    : 1 h 50 min
    Bit rate                    : 16.0 Mb/s
    Width                       : 3 840 pixels
    Height                      : 2 160 pixels
    Display aspect ratio        : 16:9
    Frame rate mode             : Constant
    Frame rate                  : 23.976 (24000/1001) FPS
    Color space                 : YUV
    Chroma subsampling          : 4:2:0
    Bit depth                   : 8 bits
    Bits/(Pixel*Frame)          : 0.081
    Stream size                 : 12.3 GiB (95%)
    Title                       : Web 2160p SDR [CinemaniaHDD]
    Language                    : English
    Default                     : Yes
    Forced                      : No
    Color range                 : Limited
    Color primaries             : BT.709
    Transfer characteristics    : BT.709
    Matrix coefficients         : BT.709

    Audio #1
    ID                          : 2
    Format                      : E-AC-3
    Format/Info                 : Enhanced AC-3
    Commercial name             : Dolby Digital Plus
    Codec ID                    : A_EAC3
    Duration                    : 1 h 50 min
    Bit rate mode               : Constant
    Bit rate                    : 640 kb/s
    Channel(s)                  : 6 channels
    Channel layout              : L R C LFE Ls Rs
    Sampling rate               : 48.0 kHz
    Frame rate                  : 31.250 FPS (1536 SPF)
    Compression mode            : Lossy
    Delay relative to video     : 1 s 416 ms
    Stream size                 : 505 MiB (4%)
    Title                       : Español Latino [CinemaniaHDD]
    Language                    : Spanish
    Service kind                : Complete Main
    Default                     : Yes
    Forced                      : No

    Audio #2
    ID                          : 3
    Format                      : E-AC-3
    Format/Info                 : Enhanced AC-3
    Commercial name             : Dolby Digital Plus
    Codec ID                    : A_EAC3
    Duration                    : 1 h 50 min
    Bit rate mode               : Constant
    Bit rate                    : 192 kb/s
    Channel(s)                  : 6 channels
    Channel layout              : L R C LFE Ls Rs
    Sampling rate               : 48.0 kHz
    Frame rate                  : 31.250 FPS (1536 SPF)
    Compression mode            : Lossy
    Stream size                 : 151 MiB (1%)
    Title                       : Ingles [CinemaniaHDD]
    Language                    : English
    Service kind                : Complete Main
    Default                     : No
    Forced                      : No

    Text #1
    ID                          : 4
    Format                      : UTF-8
    Codec ID                    : S_TEXT/UTF8
    Codec ID/Info               : UTF-8 Plain Text
    Duration                    : 1 h 20 min
    Bit rate                    : 0 b/s
    Count of elements           : 15
    Stream size                 : 404 Bytes (0%)
    Title                       : Forzados-SRT [CinemaniaHDD]
    Language                    : Spanish
    Default                     : Yes
    Forced                      : No

    Text #2
    ID                          : 5
    Format                      : UTF-8
    Codec ID                    : S_TEXT/UTF8
    Codec ID/Info               : UTF-8 Plain Text
    Duration                    : 1 h 45 min
    Bit rate                    : 60 b/s
    Count of elements           : 1621
    Stream size                 : 46.2 KiB (0%)
    Title                       : Español-SRT [CinemaniaHDD]
    Language                    : Spanish
    Default                     : No
    Forced                      : No

    Text #3
    ID                          : 6
    Format                      : UTF-8
    Codec ID                    : S_TEXT/UTF8
    Codec ID/Info               : UTF-8 Plain Text
    Duration                    : 1 h 45 min
    Bit rate                    : 68 b/s
    Count of elements           : 1767
    Stream size                 : 52.5 KiB (0%)
    Title                       : Ingles-SRT [CinemaniaHDD]
    Language                    : English
    Default                     : No
    Forced                      : No

  • Peso: 13.0 GiB

Sinopsis

Descargar Yo Antes de ti (2016) 4K UHD SDR WEB Latino. La joven y peculiar Louisa «Lou» Clark pasa de un empleo a otro para ayudar a mantener a su familia. Su alegre actitud se pone a prueba cuando ella se convierte en proveedor de cuidados para Will Traynor, un joven y adinerado banquero que quedó paralizado en un accidente dos años atrás. La perspectiva cínica de Will comienza a cambiar cuando Louisa le muestra que vale la pena vivir. Conforme se fortalece su vínculo, sus vidas y corazones cambian en maneras que ninguno de los dos jamás hubiera imaginado.

Audio Español Latino EAC3 5.1 WebDL – Ingles EAC3 5.1 WebDL

Ficha técnica

Video trailer de la película

Enlaces de descarga

Rip de Bluray

Descargar Yo Antes de ti (2016) 4K UHD SDR WEB Latino




Aportes de DPeliculasHDmega la pass es:dpeliculashdmega.org Aportes de CinemaniaHD la pass es:cinemaniahdd.com
Guardado en : 4K UHD , Drama , Romance

Películas relacionadas

  • Emily la criminal (2022) HD 1080p Latino

    Emily la criminal (2022) HD 1080p Latino

    2022
    Emily la criminal (2022) HD 1080p Latino

    1h 37m 2022

    Descargar Emily la criminal (2022) HD 1080p Latino. Emily, que tiene una deuda estudiantil y está excluida...

    Director: John Patton Ford

    Género: Crimen

    Actores: Theo Rossi

  • Emily la criminal (2022) REMUX 1080p Latino

    Emily la criminal (2022) REMUX 1080p Latino

    2022
    Emily la criminal (2022) REMUX 1080p Latino

    1h 37m 2022

    Descargar Emily la criminal (2022) REMUX 1080p Latino. Emily, que tiene una deuda estudiantil y está...

    Director: John Patton Ford

    Género: Crimen

    Actores: Theo Rossi

  • Território Hostil (2022) HD 1080p Latino

    Território Hostil (2022) HD 1080p Latino

    2022
    Território Hostil (2022) HD 1080p Latino

    1h 34m 2022

    Descargar Território Hostil (2022) HD 1080p Latino. En los Estados Unidos posteriores a la guerra civil,...

    Director: Brian Presley

    Género: Drama

    Actores: Natalie Whittle

descargar Yo Antes de ti (2016) 4K UHD SDR WEB Latino WEBDL 1080p gratis, Yo Antes de ti (2016) 4K UHD SDR WEB Latino WEBDL mega 1 link, Yo Antes de ti (2016) 4K UHD SDR WEB Latino WEBDL pelicula completa, descargar Yo Antes de ti (2016) 4K UHD SDR WEB Latino WEBDL gratis en mega.

Yo Antes de ti (2016) 4K UHD SDR WEB Latino pelicula full hd, Yo Antes de ti (2016) 4K UHD SDR WEB Latino mega latino, Yo Antes de ti (2016) 4K UHD SDR WEB Latino 4k latino, Yo Antes de ti (2016) 4K UHD SDR WEB Latino pelicula completa, Yo Antes de ti (2016) 4K UHD SDR WEB Latino descargar gratis, descargar Yo Antes de ti (2016) 4K UHD SDR WEB Latino pelicula latino, Yo Antes de ti (2016) 4K UHD SDR WEB Latino 1 link mega, Yo Antes de ti (2016) 4K UHD SDR WEB Latino 1 link google drive, Yo Antes de ti (2016) 4K UHD SDR WEB Latino hd 1080p latino.
Comentarios 0