×

¿Problemas para descargar con Mozilla, EDGE? Deshabilita la opción "Abrir vinculos en una pestaña nueva" tal como lo muestra ésta imagen.

Me and Earl and the Dying Girl (2015) REMUX 1080p Latino – CMHDD

212 vistas

Información de Me and Earl and the Dying Girl (2015) REMUX 1080p Latino – CMHDD

Datos de la película

  • Calidad: Full 1080p
  • Audio: Español Latino AC3 5.1 BLURAY - Ingles DTS 5.1 BLURAY
  • Subtitulos: Español Latino PGS
  • Resolución: 1920x1080p
  • Formato: MKV
  • Codec: H.264
  • Encoder: Dracarys
  • Mediainfo: Clic para Mostrar Datos Ver
  • Format                      : Matroska
    Format version              : Version 4
    File size                   : 21.0 GiB
    Duration                    : 1 h 45 min
    Overall bit rate mode       : Variable
    Overall bit rate            : 28.5 Mb/s
    Movie name                  : Me and Earl and the Dying Girl (2015) REMUX 1080p Latino - CMHDD
    Encoded date                : UTC 2022-01-15 20:51:17
    Writing application         : mkvmerge v17.0.0 ('Be Ur Friend') 64-bit
    Writing library             : libebml v1.3.5 + libmatroska v1.4.8

    Video
    ID                          : 1
    Format                      : AVC
    Format/Info                 : Advanced Video Codec
    Format profile              : High@L4.1
    Format settings             : CABAC / 4 Ref Frames
    Format settings, CABAC      : Yes
    Format settings, Reference  : 4 frames
    Codec ID                    : V_MPEG4/ISO/AVC
    Duration                    : 1 h 45 min
    Bit rate mode               : Variable
    Bit rate                    : 24.8 Mb/s
    Maximum bit rate            : 34.0 Mb/s
    Width                       : 1 920 pixels
    Height                      : 1 080 pixels
    Display aspect ratio        : 16:9
    Frame rate mode             : Constant
    Frame rate                  : 23.976 (24000/1001) FPS
    Color space                 : YUV
    Chroma subsampling          : 4:2:0
    Bit depth                   : 8 bits
    Scan type                   : Progressive
    Bits/(Pixel*Frame)          : 0.499
    Stream size                 : 18.2 GiB (87%)
    Default                     : Yes
    Forced                      : No

    Audio #1
    ID                          : 2
    Format                      : DTS XLL
    Format/Info                 : Digital Theater Systems
    Commercial name             : DTS-HD Master Audio
    Codec ID                    : A_DTS
    Duration                    : 1 h 45 min
    Bit rate mode               : Variable
    Bit rate                    : 3 231 kb/s
    Channel(s)                  : 6 channels
    Channel layout              : C L R Ls Rs LFE
    Sampling rate               : 48.0 kHz
    Frame rate                  : 93.750 FPS (512 SPF)
    Bit depth                   : 24 bits
    Compression mode            : Lossless
    Stream size                 : 2.37 GiB (11%)
    Language                    : English
    Default                     : No
    Forced                      : No

    Audio #2
    ID                          : 3
    Format                      : AC-3
    Format/Info                 : Audio Coding 3
    Commercial name             : Dolby Digital
    Codec ID                    : A_AC3
    Duration                    : 1 h 45 min
    Bit rate mode               : Constant
    Bit rate                    : 448 kb/s
    Channel(s)                  : 6 channels
    Channel layout              : L R C LFE Ls Rs
    Sampling rate               : 48.0 kHz
    Frame rate                  : 31.250 FPS (1536 SPF)
    Compression mode            : Lossy
    Stream size                 : 337 MiB (2%)
    Language                    : Spanish
    Service kind                : Complete Main
    Default                     : Yes
    Forced                      : No

    Text #1
    ID                          : 4
    Format                      : PGS
    Muxing mode                 : zlib
    Codec ID                    : S_HDMV/PGS
    Codec ID/Info               : Picture based subtitle format used on BDs/HD-DVDs
    Duration                    : 1 h 44 min
    Bit rate                    : 40.6 kb/s
    Count of elements           : 2762
    Stream size                 : 30.3 MiB (0%)
    Language                    : Spanish
    Default                     : No
    Forced                      : No

    Text #2
    ID                          : 5
    Format                      : PGS
    Muxing mode                 : zlib
    Codec ID                    : S_HDMV/PGS
    Codec ID/Info               : Picture based subtitle format used on BDs/HD-DVDs
    Duration                    : 1 h 45 min
    Bit rate                    : 73.2 kb/s
    Count of elements           : 3757
    Stream size                 : 55.0 MiB (0%)
    Language                    : Spanish
    Default                     : No
    Forced                      : No

    Menu
    00:00:00.000                : en:Chapter 1
    00:02:26.354                : en:Chapter 2
    00:05:53.269                : en:Chapter 3
    00:10:20.494                : en:Chapter 4
    00:13:29.892                : en:Chapter 5
    00:16:01.293                : en:Chapter 6
    00:20:07.247                : en:Chapter 7
    00:24:04.985                : en:Chapter 8
    00:27:11.421                : en:Chapter 9
    00:31:05.822                : en:Chapter 10
    00:34:25.229                : en:Chapter 11
    00:40:26.799                : en:Chapter 12
    00:43:33.611                : en:Chapter 13
    00:45:32.688                : en:Chapter 14
    00:49:24.670                : en:Chapter 15
    00:53:10.645                : en:Chapter 16
    00:56:38.019                : en:Chapter 17
    00:59:28.773                : en:Chapter 18
    01:07:09.817                : en:Chapter 19
    01:11:29.201                : en:Chapter 20
    01:14:16.285                : en:Chapter 21
    01:17:58.548                : en:Chapter 22
    01:20:43.922                : en:Chapter 23
    01:23:17.450                : en:Chapter 24
    01:30:29.841                : en:Chapter 25
    01:32:48.896                : en:Chapter 26
    01:38:36.076                : en:Chapter 27
    01:40:10.004                : en:Chapter 28
    01:44:21.505                : en:Chapter 29

  • Peso: 21.0 GiB

Sinopsis

Greg está pasando el último año del instituto de la forma más anónima posible, evitando las interacciones sociales, mientras secretamente hace extrañas películas con Earl, su único amigo. Pero todo comenzará a cambiar cuando su madre le obliga a hacerse amigo de una compañera de clase con leucemia.

Ficha técnica

  • Titulo original: Me and Earl and the Dying Girl
  • Fecha de lanzamiento: 12-06-2015 (United States of America)
  • Director: Alfonso Gomez-Rejon
  • Género: Comedia, Drama

Video trailer de la película

Enlaces de descarga

Rip de Bluray

Descargar Me and Earl and the Dying Girl (2015) REMUX 1080p Latino – CMHDD


Aportes de DPeliculasHDmega la pass es:dpeliculashdmega.org Aportes de CinemaniaHD la pass es:cinemaniahdd.com
Guardado en : Comedia , Drama

Películas relacionadas

  • Paradise Highway (2022) HD 1080p Latino

    Paradise Highway (2022) HD 1080p Latino

    2022
    Paradise Highway (2022) HD 1080p Latino

    1h 55m 2022

    Descargar Paradise Highway (2022) HD 1080p Latino. Un camionero se ha visto obligado a pasar de contrabando...

    Director: Anna Gutto

    Género: Crimen

    Actores: Xavier Scott Evans

  • Paradise Highway (2022) PLACEBO Full HD 1080p Latino

    Paradise Highway (2022) PLACEBO Full HD 1080p Latino

    2022
    Paradise Highway (2022) PLACEBO Full HD 1080p Latino

    1h 55m 2022

    Descargar Paradise Highway (2022) PLACEBO Full HD 1080p Latino. Un camionero se ha visto obligado a pasar...

    Director: Anna Gutto

    Género: Crimen

    Actores: Xavier Scott Evans

  • Paradise Highway (2022) REMUX 1080p Latino

    Paradise Highway (2022) REMUX 1080p Latino

    2022
    Paradise Highway (2022) REMUX 1080p Latino

    1h 55m 2022

    Descargar Paradise Highway (2022) REMUX 1080p Latino. Un camionero se ha visto obligado a pasar de contrabando...

    Director: Anna Gutto

    Género: Crimen

    Actores: Xavier Scott Evans

  • Shotgun Wedding (2022) AMZN WEB-DL 1080p Latino

    Shotgun Wedding (2022) AMZN WEB-DL 1080p Latino

    2022
    Shotgun Wedding (2022) AMZN WEB-DL 1080p Latino

    1h 41m 2022

    Darcy y Tom reúnen a sus familias para la boda de destino definitiva, pero cuando toman como rehenes...

    Director: Jason Moore

    Género: Acción

    Actores: Steve Coulter

descargar Me and Earl and the Dying Girl (2015) REMUX 1080p Latino – CMHDD Full 1080p 1080p gratis, Me and Earl and the Dying Girl (2015) REMUX 1080p Latino – CMHDD Full 1080p mega 1 link, Me and Earl and the Dying Girl (2015) REMUX 1080p Latino – CMHDD Full 1080p pelicula completa, descargar Me and Earl and the Dying Girl (2015) REMUX 1080p Latino – CMHDD Full 1080p gratis en mega.

Me and Earl and the Dying Girl (2015) REMUX 1080p Latino – CMHDD pelicula full hd, Me and Earl and the Dying Girl (2015) REMUX 1080p Latino – CMHDD mega latino, Me and Earl and the Dying Girl (2015) REMUX 1080p Latino – CMHDD 4k latino, Me and Earl and the Dying Girl (2015) REMUX 1080p Latino – CMHDD pelicula completa, Me and Earl and the Dying Girl (2015) REMUX 1080p Latino – CMHDD descargar gratis, descargar Me and Earl and the Dying Girl (2015) REMUX 1080p Latino – CMHDD pelicula latino, Me and Earl and the Dying Girl (2015) REMUX 1080p Latino – CMHDD 1 link mega, Me and Earl and the Dying Girl (2015) REMUX 1080p Latino – CMHDD 1 link google drive, Me and Earl and the Dying Girl (2015) REMUX 1080p Latino – CMHDD hd 1080p latino.
Comentarios 0