×

¿Problemas para descargar con Mozilla, EDGE? Deshabilita la opción "Abrir vinculos en una pestaña nueva" tal como lo muestra ésta imagen.

MDMA (2017) WEB-DL 1080p latino

772 vistas

Información de MDMA (2017) WEB-DL 1080p latino

Datos de la película

  • Calidad: WEBDL
  • Audio: Español Latino AC3 2.0 Capturado - Ingles AC3 5.1 iTunes
  • Subtitulos: No
  • Resolución: 1916x798
  • Formato: MKV
  • Codec: H.264
  • Encoder: cinemaniahdd
  • Mediainfo: Clic para Mostrar Datos Ver
  • MDMA (2017) WEB-DL 1080p latinot.mkv
    Format                      : Matroska
    Format version              : Version 4
    File size                   : 3.60 GiB
    Duration                    : 1 h 38 min
    Overall bit rate            : 5 243 kb/s
    Movie name                  : MDMA (2017) - CinemaniaHDD.Net
    Encoded date                : UTC 2019-11-20 16:33:52
    Writing application         : mkvmerge v38.0.0 ('The Silent Type') 64-bit
    Writing library             : libebml v1.3.9 + libmatroska v1.5.2

    Video
    ID                          : 1
    Format                      : AVC
    Format/Info                 : Advanced Video Codec
    Format profile              : High@L4
    Format settings             : CABAC / 5 Ref Frames
    Format settings, CABAC      : Yes
    Format settings, ReFrames   : 5 frames
    Format settings, GOP        : N=1
    Codec ID                    : V_MPEG4/ISO/AVC
    Duration                    : 1 h 38 min
    Bit rate                    : 4 601 kb/s
    Width                       : 1 916 pixels
    Height                      : 798 pixels
    Display aspect ratio        : 2.40:1
    Frame rate mode             : Constant
    Frame rate                  : 23.976 FPS
    Color space                 : YUV
    Chroma subsampling          : 4:2:0
    Bit depth                   : 8 bits
    Scan type                   : Progressive
    Bits/(Pixel*Frame)          : 0.126
    Stream size                 : 3.16 GiB (88%)
    Title                       : CinemaniaHDD.Net
    Language                    : English
    Default                     : Yes
    Forced                      : No
    Color range                 : Limited
    Color primaries             : BT.709
    Transfer characteristics    : BT.709
    Matrix coefficients         : BT.709

    Audio #1
    ID                          : 2
    Format                      : AC-3
    Format/Info                 : Audio Coding 3
    Commercial name             : Dolby Digital
    Codec ID                    : A_AC3
    Duration                    : 1 h 38 min
    Bit rate mode               : Constant
    Bit rate                    : 256 kb/s
    Channel(s)                  : 2 channels
    Channel layout              : L R
    Sampling rate               : 48.0 kHz
    Frame rate                  : 31.250 FPS (1536 SPF)
    Bit depth                   : 16 bits
    Compression mode            : Lossy
    Delay relative to video     : -42 ms
    Stream size                 : 180 MiB (5%)
    Title                       : Español latino [CinemaniaHDD]
    Language                    : Spanish
    Service kind                : Complete Main
    Default                     : Yes
    Forced                      : No

    Audio #2
    ID                          : 3
    Format                      : AC-3
    Format/Info                 : Audio Coding 3
    Commercial name             : Dolby Digital
    Codec ID                    : A_AC3
    Duration                    : 1 h 38 min
    Bit rate mode               : Constant
    Bit rate                    : 384 kb/s
    Channel(s)                  : 6 channels
    Channel layout              : L R C LFE Ls Rs
    Sampling rate               : 48.0 kHz
    Frame rate                  : 31.250 FPS (1536 SPF)
    Bit depth                   : 16 bits
    Compression mode            : Lossy
    Delay relative to video     : -42 ms
    Stream size                 : 270 MiB (7%)
    Title                       : Inglés [CinemaniaHDD]
    Language                    : English
    Service kind                : Complete Main
    Default                     : No
    Forced                      : No

    Menu
    00:00:00.000                : en:1
    00:13:16.755                : en:2
    00:20:09.666                : en:3
    00:30:57.979                : en:4
    00:40:19.540                : en:5
    00:50:29.690                : en:6
    01:02:03.132                : en:7
    01:12:48.067                : en:8
    01:18:43.588                : en:9
    01:33:57.626                : en:10

     

  • Peso: 3.60 GiB

Sinopsis

Cuando una universidad de prestigio acepta a una chica asiática de clase social baja, descubre que su destreza académica puede ser utilizada con fines lucrativos.

Ficha técnica

  • Titulo original: MDMA
  • Fecha de lanzamiento: 10-03-2017
  • Director: Angie Wang
  • Género: Drama

Video trailer de la película

Enlaces de descarga

Rip de Bluray

Descargar MDMA (2017) WEB-DL 1080p latino




Aportes de DPeliculasHDmega la pass es:dpeliculashdmega.org Aportes de CinemaniaHD la pass es:cinemaniahdd.com
Guardado en : Drama

Películas relacionadas

  • Togo (2022) NF WEB-DL 1080p Latino

    Togo (2022) NF WEB-DL 1080p Latino

    2022
    Togo (2022) NF WEB-DL 1080p Latino

    1h 35m 2022

    Descargar Togo (2022) NF WEB-DL 1080p Latino. Los narcos de poca monta están copando las calles de Montevideo...

    Director: Adrián Caetano

    Género: Crimen

    Actores: Tito Prieto

  • El Ultimo Juego (2021) WEB-DL 1080p Latino

    El Ultimo Juego (2021) WEB-DL 1080p Latino

    2021
    El Ultimo Juego (2021) WEB-DL 1080p Latino

    1h 21m 2021

    Descargar El Ultimo Juego (2021) WEB-DL 1080p Latino. 6 extraños se despiertan dentro de una habitación...

    Director: John David Moffat IV

    Género: Drama

    Actores: Yasmin Irvine

descargar MDMA (2017) WEB-DL 1080p latino WEBDL 1080p gratis, MDMA (2017) WEB-DL 1080p latino WEBDL mega 1 link, MDMA (2017) WEB-DL 1080p latino WEBDL pelicula completa, descargar MDMA (2017) WEB-DL 1080p latino WEBDL gratis en mega.

MDMA (2017) WEB-DL 1080p latino pelicula full hd, MDMA (2017) WEB-DL 1080p latino mega latino, MDMA (2017) WEB-DL 1080p latino 4k latino, MDMA (2017) WEB-DL 1080p latino pelicula completa, MDMA (2017) WEB-DL 1080p latino descargar gratis, descargar MDMA (2017) WEB-DL 1080p latino pelicula latino, MDMA (2017) WEB-DL 1080p latino 1 link mega, MDMA (2017) WEB-DL 1080p latino 1 link google drive, MDMA (2017) WEB-DL 1080p latino hd 1080p latino.
Comentarios 0