×

¿Problemas para descargar con Mozilla, EDGE? Deshabilita la opción "Abrir vinculos en una pestaña nueva" tal como lo muestra ésta imagen.

Demasiado Grande Para Cuentos De Hadas 2 (2024) NF WEB-DL 1080p Latino

20 vistas

Información de Demasiado Grande Para Cuentos De Hadas 2 (2024) NF WEB-DL 1080p Latino

Datos de la película

  • Calidad: WEBDL
  • Audio: Se especifica abajo de la Sinopsis
  • Subtitulos: Español Latino SRT- FORZADOS SRT
  • Resolución: 1920x1080p
  • Formato: MKV
  • Codec: H.264
  • Encoder: Melkor
  • Mediainfo: Clic para Mostrar Datos Ver
  • Too Old for Fairy Tales 2 (2024) NF 1080p Latino.mkv
    Format                      : Matroska
    Format version              : Version 4
    File size                   : 3.93 GiB
    Duration                    : 1 h 37 min
    Overall bit rate            : 5 787 kb/s
    Movie name                  : Too Old for Fairy Tales 2 (2024) CinemaniaHDD.Net
    Encoded date                : UTC 2024-06-11 04:25:07
    Writing application         : mkvmerge v56.1.0 ('My Friend') 64-bit
    Writing library             : libebml v1.4.2 + libmatroska v1.6.4
    Cover                       : Yes
    Attachments                 : CINEMANIAHD.png
    Site                        : CinemaniaHDD.Net
    Uploader                    : Melkor

    Video
    ID                          : 1
    Format                      : AVC
    Format/Info                 : Advanced Video Codec
    Format profile              : High@L4
    Format settings             : CABAC / 3 Ref Frames
    Format settings, CABAC      : Yes
    Format settings, Reference  : 3 frames
    Format settings, GOP        : M=1, N=24
    Codec ID                    : V_MPEG4/ISO/AVC
    Duration                    : 1 h 37 min
    Bit rate mode               : Constant
    Bit rate                    : 4 672 kb/s
    Width                       : 1 920 pixels
    Height                      : 1 080 pixels
    Display aspect ratio        : 16:9
    Frame rate mode             : Constant
    Frame rate                  : 24.000 FPS
    Color space                 : YUV
    Chroma subsampling          : 4:2:0
    Bit depth                   : 8 bits
    Scan type                   : Progressive
    Bits/(Pixel*Frame)          : 0.094
    Stream size                 : 3.06 GiB (78%)
    Title                       : Web HD1080p [CinemaniaHDD]
    Default                     : Yes
    Forced                      : Yes
    Color range                 : Limited
    Color primaries             : BT.709
    Transfer characteristics    : BT.709
    Matrix coefficients         : BT.709

    Audio #1
    ID                          : 2
    Format                      : E-AC-3
    Format/Info                 : Enhanced AC-3
    Commercial name             : Dolby Digital Plus
    Codec ID                    : A_EAC3
    Duration                    : 1 h 37 min
    Bit rate mode               : Constant
    Bit rate                    : 640 kb/s
    Channel(s)                  : 6 channels
    Channel layout              : L R C LFE Ls Rs
    Sampling rate               : 48.0 kHz
    Frame rate                  : 31.250 FPS (1536 SPF)
    Compression mode            : Lossy
    Stream size                 : 445 MiB (11%)
    Title                       : Español Latino [CinemaniaHDD]
    Language                    : Spanish
    Service kind                : Complete Main
    Default                     : Yes
    Forced                      : Yes

    Audio #2
    ID                          : 3
    Format                      : E-AC-3
    Format/Info                 : Enhanced AC-3
    Commercial name             : Dolby Digital Plus
    Codec ID                    : A_EAC3
    Duration                    : 1 h 37 min
    Bit rate mode               : Constant
    Bit rate                    : 640 kb/s
    Channel(s)                  : 6 channels
    Channel layout              : L R C LFE Ls Rs
    Sampling rate               : 48.0 kHz
    Frame rate                  : 31.250 FPS (1536 SPF)
    Compression mode            : Lossy
    Stream size                 : 445 MiB (11%)
    Title                       : Polaco [CinemaniaHDD]
    Language                    : Polish
    Service kind                : Complete Main
    Default                     : No
    Forced                      : No

    Text #1
    ID                          : 4
    Format                      : UTF-8
    Codec ID                    : S_TEXT/UTF8
    Codec ID/Info               : UTF-8 Plain Text
    Duration                    : 1 h 28 min
    Bit rate                    : 0 b/s
    Count of elements           : 4
    Stream size                 : 151 Bytes (0%)
    Title                       : Forzados-SRT [CinemaniaHDD]
    Language                    : Spanish
    Default                     : Yes
    Forced                      : Yes

    Text #2
    ID                          : 5
    Format                      : UTF-8
    Codec ID                    : S_TEXT/UTF8
    Codec ID/Info               : UTF-8 Plain Text
    Duration                    : 1 h 31 min
    Bit rate                    : 41 b/s
    Count of elements           : 1014
    Stream size                 : 27.8 KiB (0%)
    Title                       : Español-SRT [CinemaniaHDD]
    Language                    : Spanish
    Default                     : No
    Forced                      : No

    Text #3
    ID                          : 6
    Format                      : UTF-8
    Codec ID                    : S_TEXT/UTF8
    Codec ID/Info               : UTF-8 Plain Text
    Duration                    : 1 h 31 min
    Bit rate                    : 58 b/s
    Count of elements           : 1179
    Stream size                 : 39.3 KiB (0%)
    Title                       : Ingles-SRT [CinemaniaHDD]
    Language                    : English
    Default                     : No
    Forced                      : No

  • Peso: 3.93 GiB

Sinopsis

Descargar Demasiado Grande Para Cuentos De Hadas 2 (2024) NF WEB-DL 1080p Latino. Tu trío de jugadores favorito ha vuelto. Pasarán un verano lleno de aventuras en los montes Tatra. Durante el viaje, Waldek descubre que su padre, la persona que abandonó a su familia hace mucho tiempo, vive cerca.

Español Latino – Polaco [EAC3 5.1 NF]

Ficha técnica

Video trailer de la película

Enlaces de descarga

Rip de Bluray

Descargar Demasiado Grande Para Cuentos De Hadas 2 (2024) NF WEB-DL 1080p Latino




Aportes de DPeliculasHDmega la pass es:dpeliculashdmega.org Aportes de CinemaniaHD la pass es:cinemaniahdd.com Aportes recientes:cinemaniahdd.net
Guardado en : Comedia , Familia , Netflix

Películas relacionadas

descargar Demasiado Grande Para Cuentos De Hadas 2 (2024) NF WEB-DL 1080p Latino WEBDL 1080p gratis, Demasiado Grande Para Cuentos De Hadas 2 (2024) NF WEB-DL 1080p Latino WEBDL mega 1 link, Demasiado Grande Para Cuentos De Hadas 2 (2024) NF WEB-DL 1080p Latino WEBDL pelicula completa, descargar Demasiado Grande Para Cuentos De Hadas 2 (2024) NF WEB-DL 1080p Latino WEBDL gratis en mega.

Demasiado Grande Para Cuentos De Hadas 2 (2024) NF WEB-DL 1080p Latino pelicula full hd, Demasiado Grande Para Cuentos De Hadas 2 (2024) NF WEB-DL 1080p Latino mega latino, Demasiado Grande Para Cuentos De Hadas 2 (2024) NF WEB-DL 1080p Latino 4k latino, Demasiado Grande Para Cuentos De Hadas 2 (2024) NF WEB-DL 1080p Latino pelicula completa, Demasiado Grande Para Cuentos De Hadas 2 (2024) NF WEB-DL 1080p Latino descargar gratis, descargar Demasiado Grande Para Cuentos De Hadas 2 (2024) NF WEB-DL 1080p Latino pelicula latino, Demasiado Grande Para Cuentos De Hadas 2 (2024) NF WEB-DL 1080p Latino 1 link mega, Demasiado Grande Para Cuentos De Hadas 2 (2024) NF WEB-DL 1080p Latino 1 link google drive, Demasiado Grande Para Cuentos De Hadas 2 (2024) NF WEB-DL 1080p Latino hd 1080p latino.
Comentarios 0