×

¿Problemas para descargar con Mozilla, EDGE? Deshabilita la opción "Abrir vinculos en una pestaña nueva" tal como lo muestra ésta imagen.

May December (2023) NF WEB-DL 1080p Sub

134 vistas

Información de May December (2023) NF WEB-DL 1080p Sub

Datos de la película

  • Calidad: WEBDL
  • Audio: Ingles AC3 5.1 Netflix
  • Subtitulos: Español Latino SRT - Ingles SRT
  • Resolución: 1920x1080p
  • Formato: MKV
  • Codec: H.264
  • Encoder: Melkor
  • Mediainfo: Clic para Mostrar Datos Ver
  • May December (2023) NF WEB 1080p SUB.mkv
    Format                      : Matroska
    Format version              : Version 4
    File size                   : 6.85 GiB
    Duration                    : 1 h 57 min
    Overall bit rate mode       : Variable
    Overall bit rate            : 8 382 kb/s
    Movie name                  : May December (2023)  CinemaniaHDD.Net
    Encoded date                : UTC 2023-12-04 20:47:45
    Writing application         : mkvmerge v59.0.0 ('Shining Star') 64-bit
    Writing library             : libebml v1.4.2 + libmatroska v1.6.4
    Attachments                 : CINEMANIAHD.png
    Site                        : CinemaniaHDD.Net
    Uploader                    : Melkor

    Video
    ID                          : 1
    Format                      : AVC
    Format/Info                 : Advanced Video Codec
    Format profile              : High@L4
    Format settings             : CABAC / 4 Ref Frames
    Format settings, CABAC      : Yes
    Format settings, Reference  : 4 frames
    Codec ID                    : V_MPEG4/ISO/AVC
    Duration                    : 1 h 57 min
    Bit rate mode               : Variable
    Bit rate                    : 7 740 kb/s
    Maximum bit rate            : 20.0 Mb/s
    Width                       : 1 920 pixels
    Height                      : 1 080 pixels
    Display aspect ratio        : 16:9
    Frame rate mode             : Constant
    Frame rate                  : 24.000 FPS
    Color space                 : YUV
    Chroma subsampling          : 4:2:0
    Bit depth                   : 8 bits
    Scan type                   : Progressive
    Bits/(Pixel*Frame)          : 0.156
    Stream size                 : 6.33 GiB (92%)
    Title                       : WEB HD1080p [CinemaniaHDD]
    Writing library             : x264 core 148 r2727 7d026e8
    Encoding settings           : cabac=1 / ref=4 / deblock=1:0:0 / analyse=0x3:0x111 / me=umh / subme=10 / psy=1 / psy_rd=1.00:0.00 / mixed_ref=1 / me_range=120 / chroma_me=1 / trellis=2 / 8x8dct=1 / cqm=0 / deadzone=21,11 / fast_pskip=1 / chroma_qp_offset=-2 / threads=6 / lookahead_threads=1 / sliced_threads=0 / nr=0 / decimate=1 / interlaced=0 / bluray_compat=0 / stitchable=1 / constrained_intra=0 / bframes=16 / b_pyramid=2 / b_adapt=2 / b_bias=0 / direct=3 / weightb=1 / open_gop=0 / weightp=2 / keyint=240 / keyint_min=121 / scenecut=0 / intra_refresh=0 / rc_lookahead=240 / rc=crf / mbtree=1 / crf=20.0 / qcomp=0.50 / qpmin=6 / qpmax=51 / qpstep=4 / vbv_maxrate=20000 / vbv_bufsize=25000 / crf_max=0.0 / nal_hrd=vbr / filler=0 / ip_ratio=1.40 / aq=1:0.80
    Default                     : Yes
    Forced                      : Yes

    Audio
    ID                          : 2
    Format                      : E-AC-3
    Format/Info                 : Enhanced AC-3
    Commercial name             : Dolby Digital Plus
    Codec ID                    : A_EAC3
    Duration                    : 1 h 57 min
    Bit rate mode               : Constant
    Bit rate                    : 640 kb/s
    Channel(s)                  : 6 channels
    Channel layout              : L R C LFE Ls Rs
    Sampling rate               : 48.0 kHz
    Frame rate                  : 31.250 FPS (1536 SPF)
    Compression mode            : Lossy
    Stream size                 : 536 MiB (8%)
    Title                       : Ingles [CinemaniaHDD]
    Language                    : English
    Service kind                : Complete Main
    Default                     : Yes
    Forced                      : Yes

    Text #1
    ID                          : 3
    Format                      : UTF-8
    Codec ID                    : S_TEXT/UTF8
    Codec ID/Info               : UTF-8 Plain Text
    Duration                    : 1 h 55 min
    Bit rate                    : 48 b/s
    Count of elements           : 1409
    Stream size                 : 41.4 KiB (0%)
    Title                       : Español-SRT [CinemaniaHDD]
    Language                    : Spanish
    Default                     : No
    Forced                      : No

    Text #2
    ID                          : 4
    Format                      : UTF-8
    Codec ID                    : S_TEXT/UTF8
    Codec ID/Info               : UTF-8 Plain Text
    Duration                    : 1 h 55 min
    Bit rate                    : 61 b/s
    Count of elements           : 1684
    Stream size                 : 52.0 KiB (0%)
    Title                       : Ingles-SRT [CinemaniaHDD]
    Language                    : English
    Default                     : No
    Forced                      : No

  • Peso: 6.85 GiB

Sinopsis

Descargar May December (2023) NF WEB-DL 1080p Sub. Veinte años después de que el mediático romance entre Gracie Atherton-Yu (Julianne Moore) y su joven marido Joe escandalizara al país, con sus hijos a punto de graduarse en el instituto, se va a rodar una película sobre su historia. La actriz Elizabeth Berry (Natalie Portman) pasará un tiempo con la familia para intentar entender mejor a Gracie, a la que va a interpretar en la película, provocando que la dinámica familiar se deshaga bajo la presión de la mirada exterior.

Ficha técnica

Video trailer de la película

Enlaces de descarga

Rip de Bluray

Descargar May December (2023) NF WEB-DL 1080p Sub




Aportes de DPeliculasHDmega la pass es:dpeliculashdmega.org Aportes de CinemaniaHD la pass es:cinemaniahdd.com Aportes recientes:cinemaniahdd.net
Guardado en : Comedia , Drama , Netflix

Películas relacionadas

descargar May December (2023) NF WEB-DL 1080p Sub WEBDL 1080p gratis, May December (2023) NF WEB-DL 1080p Sub WEBDL mega 1 link, May December (2023) NF WEB-DL 1080p Sub WEBDL pelicula completa, descargar May December (2023) NF WEB-DL 1080p Sub WEBDL gratis en mega.

May December (2023) NF WEB-DL 1080p Sub pelicula full hd, May December (2023) NF WEB-DL 1080p Sub mega latino, May December (2023) NF WEB-DL 1080p Sub 4k latino, May December (2023) NF WEB-DL 1080p Sub pelicula completa, May December (2023) NF WEB-DL 1080p Sub descargar gratis, descargar May December (2023) NF WEB-DL 1080p Sub pelicula latino, May December (2023) NF WEB-DL 1080p Sub 1 link mega, May December (2023) NF WEB-DL 1080p Sub 1 link google drive, May December (2023) NF WEB-DL 1080p Sub hd 1080p latino.
Comentarios 0