×

¿Problemas para descargar con Mozilla, EDGE? Deshabilita la opción "Abrir vinculos en una pestaña nueva" tal como lo muestra ésta imagen.

May December (2023) AMZN 4K-HDR WEB-DL 2160p Latino

61 vistas

Información de May December (2023) AMZN 4K-HDR WEB-DL 2160p Latino

Datos de la película

  • Calidad: 4K HDR
  • Audio: Español Latino AC3 5.1 WEB-DL - Ingles AC3 5.1 WEB-DL
  • Subtitulos: Español Latino SRT - Ingles SRT
  • Resolución: 3840x2080
  • Formato: MKV
  • Codec: HEVC
  • Encoder: cinemaniahdd
  • Mediainfo: Clic para Mostrar Datos Ver
  • May December (2023) AMZN 4K-HDR WEB-DL 2160p Latino [CNMNHDD].mkv
    Format                      : Matroska
    Format version              : Version 4
    File size                   : 13.6 GiB
    Duration                    : 1 h 57 min
    Overall bit rate            : 16.5 Mb/s
    Movie name                  : Secretos de un escándalo (2023) [2160p] - CinemaniaHDD.Net
    Encoded date                : UTC 2024-03-09 23:58:33
    Writing application         : mkvmerge v56.1.0 ('My Friend') 64-bit
    Writing library             : libebml v1.4.2 + libmatroska v1.6.4

    Video
    ID                          : 1
    Format                      : HEVC
    Format/Info                 : High Efficiency Video Coding
    Format profile              : Main 10@L5@Main
    HDR format                  : SMPTE ST 2094 App 4, Version 1, HDR10+ Profile B compatible
    Codec ID                    : V_MPEGH/ISO/HEVC
    Duration                    : 1 h 57 min
    Bit rate                    : 14.6 Mb/s
    Width                       : 3 840 pixels
    Height                      : 2 080 pixels
    Display aspect ratio        : 1.85:1
    Frame rate mode             : Constant
    Frame rate                  : 23.976 (24000/1001) FPS
    Color space                 : YUV
    Chroma subsampling          : 4:2:0
    Bit depth                   : 10 bits
    Bits/(Pixel*Frame)          : 0.076
    Stream size                 : 12.0 GiB (88%)
    Title                       : CinemaniaHDD.Net
    Default                     : Yes
    Forced                      : No
    Color range                 : Limited
    Color primaries             : BT.2020
    Transfer characteristics    : PQ
    Matrix coefficients         : BT.2020 non-constant
    Mastering display color pri : Display P3
    Mastering display luminance : min: 0.0001 cd/m2, max: 1000 cd/m2
    Maximum Content Light Level : 879 cd/m2
    Maximum Frame-Average Light : 144 cd/m2

    Audio #1
    ID                          : 2
    Format                      : AC-3
    Format/Info                 : Audio Coding 3
    Commercial name             : Dolby Digital
    Codec ID                    : A_AC3
    Duration                    : 1 h 57 min
    Bit rate mode               : Constant
    Bit rate                    : 640 kb/s
    Channel(s)                  : 6 channels
    Channel layout              : L R C LFE Ls Rs
    Sampling rate               : 48.0 kHz
    Frame rate                  : 31.250 FPS (1536 SPF)
    Compression mode            : Lossy
    Stream size                 : 538 MiB (4%)
    Title                       : Español Latino [CinemaniaHDD]
    Language                    : Spanish
    Service kind                : Complete Main
    Default                     : Yes
    Forced                      : No

    Audio #2
    ID                          : 3
    Format                      : E-AC-3
    Format/Info                 : Enhanced AC-3
    Commercial name             : Dolby Digital Plus
    Codec ID                    : A_EAC3
    Duration                    : 1 h 57 min
    Bit rate mode               : Constant
    Bit rate                    : 640 kb/s
    Channel(s)                  : 6 channels
    Channel layout              : L R C LFE Ls Rs
    Sampling rate               : 48.0 kHz
    Frame rate                  : 31.250 FPS (1536 SPF)
    Compression mode            : Lossy
    Stream size                 : 538 MiB (4%)
    Title                       : Español Latino / EAC3 [CinemaniaHDD]
    Language                    : Spanish
    Service kind                : Complete Main
    Default                     : No
    Forced                      : No

    Audio #3
    ID                          : 4
    Format                      : E-AC-3
    Format/Info                 : Enhanced AC-3
    Commercial name             : Dolby Digital Plus
    Codec ID                    : A_EAC3
    Duration                    : 1 h 57 min
    Bit rate mode               : Constant
    Bit rate                    : 640 kb/s
    Channel(s)                  : 6 channels
    Channel layout              : L R C LFE Ls Rs
    Sampling rate               : 48.0 kHz
    Frame rate                  : 31.250 FPS (1536 SPF)
    Compression mode            : Lossy
    Stream size                 : 538 MiB (4%)
    Title                       : Inglés (Original) [CinemaniaHDD]
    Language                    : English
    Service kind                : Complete Main
    Default                     : No
    Forced                      : No

    Text #1
    ID                          : 5
    Format                      : UTF-8
    Codec ID                    : S_TEXT/UTF8
    Codec ID/Info               : UTF-8 Plain Text
    Duration                    : 1 h 7 min
    Bit rate                    : 2 b/s
    Count of elements           : 34
    Stream size                 : 1.03 KiB (0%)
    Title                       : Forzados [CinemaniaHDD]
    Language                    : Spanish
    Default                     : Yes
    Forced                      : Yes

    Text #2
    ID                          : 6
    Format                      : UTF-8
    Codec ID                    : S_TEXT/UTF8
    Codec ID/Info               : UTF-8 Plain Text
    Duration                    : 1 h 49 min
    Bit rate                    : 49 b/s
    Count of elements           : 1231
    Stream size                 : 39.8 KiB (0%)
    Title                       : Español Latino [CinemaniaHDD]
    Language                    : Spanish
    Default                     : No
    Forced                      : No

    Text #3
    ID                          : 7
    Format                      : UTF-8
    Codec ID                    : S_TEXT/UTF8
    Codec ID/Info               : UTF-8 Plain Text
    Duration                    : 1 h 55 min
    Bit rate                    : 59 b/s
    Count of elements           : 1676
    Stream size                 : 50.5 KiB (0%)
    Title                       : Inglés [CinemaniaHDD]
    Language                    : English
    Default                     : No
    Forced                      : No

     

  • Peso: 13.6 GiB

Sinopsis

Veinte años después de que el mediático romance entre Gracie Atherton-Yu (Julianne Moore) y su joven marido Joe escandalizara al país, con sus hijos a punto de graduarse en el instituto, se va a rodar una película sobre su historia. La actriz Elizabeth Berry (Natalie Portman) pasará un tiempo con la familia para intentar entender mejor a Gracie, a la que va a interpretar en la película, provocando que la dinámica familiar se deshaga bajo la presión de la mirada exterior.

Ficha técnica

Video trailer de la película

Enlaces de descarga

Rip de Bluray

Descargar May December (2023) AMZN 4K-HDR WEB-DL 2160p Latino




Aportes de DPeliculasHDmega la pass es:dpeliculashdmega.org Aportes de CinemaniaHD la pass es:cinemaniahdd.com Aportes recientes:cinemaniahdd.net
Guardado en : 4K HDR , 4K UHD , Comedia , Drama

Películas relacionadas

  • The Teachers Lounge (2023) AMZN WEB-DL 1080p Latino

    The Teachers Lounge (2023) AMZN WEB-DL 1080p Latino

    2023
    The Teachers Lounge (2023) AMZN WEB-DL 1080p Latino

    1h 38m 2023

    Carla Nowak (LEONIE BENESCH) es una joven profesora dedicada e idealista en su primer puesto en una secundaria....

    Director: Pia Ihling

    Género: Drama

    Actores: Zayana Mielke

  • Puppy Love (2023) AMZN 4K-HDR WEB-DL 2160p Latino

    Puppy Love (2023) AMZN 4K-HDR WEB-DL 2160p Latino

    2023
    Puppy Love (2023) AMZN 4K-HDR WEB-DL 2160p Latino

    1h 46m 2023

    Después de una desastrosa primera cita, Nicole, una joven desenfrenada, y Max, socialmente ansioso,...

    Director: Trevor Cunningham

    Género: 4K HDR

    Actores: Sarah Almonte Peguero

  • Puppy Love (2023) AMZN WEB-DL 1080p Latino

    Puppy Love (2023) AMZN WEB-DL 1080p Latino

    2023
    Puppy Love (2023) AMZN WEB-DL 1080p Latino

    1h 46m 2023

    Después de una desastrosa primera cita, Nicole, una joven desenfrenada, y Max, socialmente ansioso,...

    Director: Trevor Cunningham

    Género: Comedia

    Actores: Sarah Almonte Peguero

descargar May December (2023) AMZN 4K-HDR WEB-DL 2160p Latino 4K HDR 1080p gratis, May December (2023) AMZN 4K-HDR WEB-DL 2160p Latino 4K HDR mega 1 link, May December (2023) AMZN 4K-HDR WEB-DL 2160p Latino 4K HDR pelicula completa, descargar May December (2023) AMZN 4K-HDR WEB-DL 2160p Latino 4K HDR gratis en mega.

May December (2023) AMZN 4K-HDR WEB-DL 2160p Latino pelicula full hd, May December (2023) AMZN 4K-HDR WEB-DL 2160p Latino mega latino, May December (2023) AMZN 4K-HDR WEB-DL 2160p Latino 4k latino, May December (2023) AMZN 4K-HDR WEB-DL 2160p Latino pelicula completa, May December (2023) AMZN 4K-HDR WEB-DL 2160p Latino descargar gratis, descargar May December (2023) AMZN 4K-HDR WEB-DL 2160p Latino pelicula latino, May December (2023) AMZN 4K-HDR WEB-DL 2160p Latino 1 link mega, May December (2023) AMZN 4K-HDR WEB-DL 2160p Latino 1 link google drive, May December (2023) AMZN 4K-HDR WEB-DL 2160p Latino hd 1080p latino.
Comentarios 0