×

¿Problemas para descargar con Mozilla, EDGE? Deshabilita la opción "Abrir vinculos en una pestaña nueva" tal como lo muestra ésta imagen.

Mau y Ricky Live on Max (2021) HMAX WEB-DL 1080p Latino

230 vistas

Información de Mau y Ricky Live on Max (2021) HMAX WEB-DL 1080p Latino

Datos de la película

  • Calidad: 1080p
  • Audio: Español Latino AC3 2.0
  • Subtitulos: No
  • Resolución: 1920x1080
  • Formato: MKV
  • Codec: H.264
  • Encoder: cinemaniahdd
  • Mediainfo: Clic para Mostrar Datos Ver
  • Mau y Ricky Live On Max (2021) HMAX WEB-DL 1080p Latino [CNMNHDD].mkv
    Format                      : Matroska
    Format version              : Version 4
    File size                   : 3.85 GiB
    Duration                    : 1 h 6 min
    Overall bit rate mode       : Constant
    Overall bit rate            : 8 348 kb/s
    Movie name                  : Mau y Ricky Live On Max (2021) - CinemaniaHDD.Net
    Encoded date                : UTC 2021-12-05 14:30:28
    Writing application         : mkvmerge v56.1.0 ('My Friend') 64-bit
    Writing library             : libebml v1.4.2 + libmatroska v1.6.4

    Video
    ID                          : 1
    Format                      : AVC
    Format/Info                 : Advanced Video Codec
    Format profile              : High@L4
    Format settings             : CABAC / 4 Ref Frames
    Format settings, CABAC      : Yes
    Format settings, Reference  : 4 frames
    Codec ID                    : V_MPEG4/ISO/AVC
    Duration                    : 1 h 5 min
    Bit rate mode               : Constant
    Bit rate                    : 8 000 kb/s
    Width                       : 1 920 pixels
    Height                      : 1 080 pixels
    Display aspect ratio        : 16:9
    Frame rate mode             : Constant
    Frame rate                  : 29.970 (30000/1001) FPS
    Color space                 : YUV
    Chroma subsampling          : 4:2:0
    Bit depth                   : 8 bits
    Scan type                   : Progressive
    Bits/(Pixel*Frame)          : 0.129
    Stream size                 : 3.67 GiB (95%)
    Title                       : CinemaniaHDD
    Default                     : Yes
    Forced                      : No

    Audio
    ID                          : 2
    Format                      : AC-3
    Format/Info                 : Audio Coding 3
    Commercial name             : Dolby Digital
    Codec ID                    : A_AC3
    Duration                    : 1 h 6 min
    Bit rate mode               : Constant
    Bit rate                    : 384 kb/s
    Channel(s)                  : 2 channels
    Channel layout              : L R
    Sampling rate               : 48.0 kHz
    Frame rate                  : 31.250 FPS (1536 SPF)
    Compression mode            : Lossy
    Stream size                 : 181 MiB (5%)
    Title                       : Español latino [CinemaniaHDD]
    Language                    : Spanish
    Service kind                : Complete Main
    Default                     : Yes
    Forced                      : No

     

  • Peso: 3.85 GiB

Sinopsis

El talento de los hermanos Montaner es el protagonista de esta edición de Live on Max. El dúo venezolano Mau y Ricky está listo para presentar su característica mezcla de pop latino con música urbana

Ficha técnica

  • Titulo original: Mau y Ricky Live on Max
  • Fecha de lanzamiento: 27-11-2021
  • Género: HBOMAX, Música

Video trailer de la película

Enlaces de descarga

Rip de Bluray

Descargar Mau y Ricky Live on Max (2021) HMAX WEB-DL 1080p Latino




Aportes de DPeliculasHDmega la pass es:dpeliculashdmega.org Aportes de CinemaniaHD la pass es:cinemaniahdd.com Aportes recientes:cinemaniahdd.net
Guardado en : HBOMAX , Música

Películas relacionadas

descargar Mau y Ricky Live on Max (2021) HMAX WEB-DL 1080p Latino 1080p 1080p gratis, Mau y Ricky Live on Max (2021) HMAX WEB-DL 1080p Latino 1080p mega 1 link, Mau y Ricky Live on Max (2021) HMAX WEB-DL 1080p Latino 1080p pelicula completa, descargar Mau y Ricky Live on Max (2021) HMAX WEB-DL 1080p Latino 1080p gratis en mega.

Mau y Ricky Live on Max (2021) HMAX WEB-DL 1080p Latino pelicula full hd, Mau y Ricky Live on Max (2021) HMAX WEB-DL 1080p Latino mega latino, Mau y Ricky Live on Max (2021) HMAX WEB-DL 1080p Latino 4k latino, Mau y Ricky Live on Max (2021) HMAX WEB-DL 1080p Latino pelicula completa, Mau y Ricky Live on Max (2021) HMAX WEB-DL 1080p Latino descargar gratis, descargar Mau y Ricky Live on Max (2021) HMAX WEB-DL 1080p Latino pelicula latino, Mau y Ricky Live on Max (2021) HMAX WEB-DL 1080p Latino 1 link mega, Mau y Ricky Live on Max (2021) HMAX WEB-DL 1080p Latino 1 link google drive, Mau y Ricky Live on Max (2021) HMAX WEB-DL 1080p Latino hd 1080p latino.
Comentarios 0