×

¿Problemas para descargar con Mozilla, EDGE? Deshabilita la opción "Abrir vinculos en una pestaña nueva" tal como lo muestra ésta imagen.

Matrix Resurrecciones (2021) REMUX 1080p Latino

580 vistas

Información de Matrix Resurrecciones (2021) REMUX 1080p Latino

Datos de la película

  • Calidad: Full 1080p
  • Audio: Se especifica abajo de la Sinopsis
  • Subtitulos: Español Latino SRT- FORZADOS SRT
  • Resolución: 1920x1080p
  • Formato: MKV
  • Codec: H.264
  • Encoder: Melkor
  • Mediainfo: Clic para Mostrar Datos Ver
  • Matrix Resurrecciones (2021) HDREMUX 1080p Latino.mkv
    Format                      : Matroska
    Format version              : Version 4
    File size                   : 25.8 GiB
    Duration                    : 2 h 27 min
    Overall bit rate mode       : Variable
    Overall bit rate            : 24.9 Mb/s
    Movie name                  : The Matrix Resurrections (2021) CinemaniaHDD.Net
    Encoded date                : UTC 2022-02-23 07:32:41
    Writing application         : mkvmerge v56.1.0 ('My Friend') 64-bit
    Writing library             : libebml v1.4.2 + libmatroska v1.6.4
    Attachments                 : CINEMANIAHD.png

    Video
    ID                          : 1
    Format                      : AVC
    Format/Info                 : Advanced Video Codec
    Format profile              : High@L4.1
    Format settings             : CABAC / 4 Ref Frames
    Format settings, CABAC      : Yes
    Format settings, Reference  : 4 frames
    Codec ID                    : V_MPEG4/ISO/AVC
    Duration                    : 2 h 27 min
    Bit rate mode               : Variable
    Bit rate                    : 20.8 Mb/s
    Maximum bit rate            : 29.5 Mb/s
    Width                       : 1 920 pixels
    Height                      : 1 080 pixels
    Display aspect ratio        : 16:9
    Frame rate mode             : Constant
    Frame rate                  : 23.976 (24000/1001) FPS
    Color space                 : YUV
    Chroma subsampling          : 4:2:0
    Bit depth                   : 8 bits
    Scan type                   : Progressive
    Bits/(Pixel*Frame)          : 0.419
    Stream size                 : 21.5 GiB (84%)
    Title                       : REMUX HD1080p [CinemaniaHDD]
    Language                    : English
    Default                     : Yes
    Forced                      : Yes

    Audio #1
    ID                          : 2
    Format                      : AC-3
    Format/Info                 : Audio Coding 3
    Commercial name             : Dolby Digital
    Codec ID                    : A_AC3
    Duration                    : 2 h 27 min
    Bit rate mode               : Constant
    Bit rate                    : 448 kb/s
    Channel(s)                  : 6 channels
    Channel layout              : L R C LFE Ls Rs
    Sampling rate               : 48.0 kHz
    Frame rate                  : 31.250 FPS (1536 SPF)
    Compression mode            : Lossy
    Stream size                 : 474 MiB (2%)
    Title                       : Español Latino [CinemaniaHDD]
    Language                    : Spanish
    Service kind                : Complete Main
    Default                     : Yes
    Forced                      : Yes

    Audio #2
    ID                          : 3
    Format                      : MLP FBA 16-ch
    Format/Info                 : Meridian Lossless Packing FBA with 16-channel presentation
    Commercial name             : Dolby TrueHD with Dolby Atmos
    Codec ID                    : A_TRUEHD
    Duration                    : 2 h 27 min
    Bit rate mode               : Variable
    Bit rate                    : 3 140 kb/s
    Maximum bit rate            : 5 967 kb/s
    Channel(s)                  : 8 channels
    Channel layout              : L R C LFE Ls Rs Lb Rb
    Sampling rate               : 48.0 kHz
    Frame rate                  : 1 200.000 FPS (40 SPF)
    Compression mode            : Lossless
    Stream size                 : 3.25 GiB (13%)
    Title                       : Ingles-THD [CinemaniaHDD]
    Language                    : English
    Default                     : No
    Forced                      : No
    Number of dynamic objects   : 11
    Bed channel count           : 1 channel
    Bed channel configuration   : LFE

    Audio #3
    ID                          : 4
    Format                      : AC-3
    Format/Info                 : Audio Coding 3
    Commercial name             : Dolby Digital
    Format settings             : Dolby Surround EX
    Codec ID                    : A_AC3
    Duration                    : 2 h 27 min
    Bit rate mode               : Constant
    Bit rate                    : 448 kb/s
    Channel(s)                  : 6 channels
    Channel layout              : L R C LFE Ls Rs
    Sampling rate               : 48.0 kHz
    Frame rate                  : 31.250 FPS (1536 SPF)
    Compression mode            : Lossy
    Stream size                 : 474 MiB (2%)
    Title                       : Ingles-AC3 [CinemaniaHDD]
    Language                    : English
    Service kind                : Complete Main
    Default                     : No
    Forced                      : No

    Text #1
    ID                          : 5
    Format                      : UTF-8
    Codec ID                    : S_TEXT/UTF8
    Codec ID/Info               : UTF-8 Plain Text
    Duration                    : 2 h 25 min
    Bit rate                    : 0 b/s
    Count of elements           : 20
    Stream size                 : 720 Bytes (0%)
    Title                       : Forzados-SRT [CinemaniaHDD]
    Language                    : Spanish
    Default                     : Yes
    Forced                      : Yes

    Text #2
    ID                          : 6
    Format                      : UTF-8
    Codec ID                    : S_TEXT/UTF8
    Codec ID/Info               : UTF-8 Plain Text
    Duration                    : 2 h 27 min
    Bit rate                    : 45 b/s
    Count of elements           : 1667
    Stream size                 : 48.9 KiB (0%)
    Title                       : Español-SRT [CinemaniaHDD]
    Language                    : Spanish
    Default                     : No
    Forced                      : No

    Text #3
    ID                          : 7
    Format                      : UTF-8
    Codec ID                    : S_TEXT/UTF8
    Codec ID/Info               : UTF-8 Plain Text
    Duration                    : 2 h 26 min
    Bit rate                    : 44 b/s
    Count of elements           : 1674
    Stream size                 : 47.8 KiB (0%)
    Title                       : Ingles [CinemaniaHDD]
    Language                    : English
    Default                     : No
    Forced                      : No

    Menu
    00:00:00.000                : :Chapter 1
    00:04:06.079                : :Chapter 2
    00:13:44.782                : :Chapter 3
    00:22:39.358                : :Chapter 4
    00:30:47.637                : :Chapter 5
    00:39:00.630                : :Chapter 6
    00:47:42.485                : :Chapter 7
    00:54:20.799                : :Chapter 8
    01:03:01.194                : :Chapter 9
    01:11:51.557                : :Chapter 10
    01:20:40.294                : :Chapter 11
    01:30:30.258                : :Chapter 12
    01:39:38.848                : :Chapter 13
    01:48:59.867                : :Chapter 14
    01:53:17.874                : :Chapter 15
    02:02:57.620                : :Chapter 16
    02:12:33.446                : :Chapter 17
    02:16:40.984                : :Chapter 18

  • Peso: 25.8 GiB

Sinopsis

Descargar Matrix Resurrecciones (2021) REMUX 1080p Latino. En un mundo compuesto por dos realidades, lo cotidiano y lo oculto tras ella, Thomas Anderson se ve obligado de nuevo a ir tras el conejo blanco. Dicha elección continúa siendo la vía de acceso a Matrix, que esta vez es más poderosa e intrincada que en ocasiones anteriores.

Español Latino AC3 5.1 WebDL – Ingles TrueHD 7.1  & AC3 5.1 BD

Ficha técnica

Video trailer de la película

Enlaces de descarga

Rip de Bluray

Descargar Matrix Resurrecciones (2021) REMUX 1080p Latino




Aportes de DPeliculasHDmega la pass es:dpeliculashdmega.org Aportes de CinemaniaHD la pass es:cinemaniahdd.com
Guardado en : Acción , Aventura , Ciencia ficción , Remux

Películas relacionadas

descargar Matrix Resurrecciones (2021) REMUX 1080p Latino Full 1080p 1080p gratis, Matrix Resurrecciones (2021) REMUX 1080p Latino Full 1080p mega 1 link, Matrix Resurrecciones (2021) REMUX 1080p Latino Full 1080p pelicula completa, descargar Matrix Resurrecciones (2021) REMUX 1080p Latino Full 1080p gratis en mega.

Matrix Resurrecciones (2021) REMUX 1080p Latino pelicula full hd, Matrix Resurrecciones (2021) REMUX 1080p Latino mega latino, Matrix Resurrecciones (2021) REMUX 1080p Latino 4k latino, Matrix Resurrecciones (2021) REMUX 1080p Latino pelicula completa, Matrix Resurrecciones (2021) REMUX 1080p Latino descargar gratis, descargar Matrix Resurrecciones (2021) REMUX 1080p Latino pelicula latino, Matrix Resurrecciones (2021) REMUX 1080p Latino 1 link mega, Matrix Resurrecciones (2021) REMUX 1080p Latino 1 link google drive, Matrix Resurrecciones (2021) REMUX 1080p Latino hd 1080p latino.
Comentarios 0