×

¿Problemas para descargar con Mozilla, EDGE? Deshabilita la opción "Abrir vinculos en una pestaña nueva" tal como lo muestra ésta imagen.

Matilda (1996) REMUX 4K HDR Latino – CMHDD

155 vistas

Información de Matilda (1996) REMUX 4K HDR Latino – CMHDD

Datos de la película

  • Calidad: Full 1080p
  • Audio: Español Latino AC3 5.1 BLURAY - Ingles DTS 5.1 BLURAY
  • Subtitulos: Español Latino PGS
  • Resolución: 19201080p
  • Formato: MKV
  • Codec: H.264
  • Encoder: Dracarys
  • Mediainfo: Clic para Mostrar Datos Ver
  • Format                      : Matroska
    Format version              : Version 4
    File size                   : 56.1 GiB
    Duration                    : 1 h 38 min
    Overall bit rate mode       : Variable
    Overall bit rate            : 81.9 Mb/s
    Movie name                  : Matilda (1996) REMUX 4K HDR Latino - CMHDD
    Encoded date                : UTC 2023-12-08 22:27:47
    Writing application         : mkvmerge v47.0.0 ('Black Flag') 64-bit
    Writing library             : libebml v1.3.10 + libmatroska v1.5.2

    Video
    ID                          : 1
    Format                      : HEVC
    Format/Info                 : High Efficiency Video Coding
    Format profile              : Main 10@L5.1@High
    HDR format                  : SMPTE ST 2086, HDR10 compatible
    Codec ID                    : V_MPEGH/ISO/HEVC
    Duration                    : 1 h 38 min
    Bit rate                    : 78.3 Mb/s
    Width                       : 3 840 pixels
    Height                      : 2 160 pixels
    Display aspect ratio        : 16:9
    Frame rate mode             : Constant
    Frame rate                  : 23.976 (24000/1001) FPS
    Color space                 : YUV
    Chroma subsampling          : 4:2:0 (Type 2)
    Bit depth                   : 10 bits
    Bits/(Pixel*Frame)          : 0.394
    Stream size                 : 53.7 GiB (96%)
    Language                    : English
    Default                     : Yes
    Forced                      : No
    Color range                 : Limited
    Color primaries             : BT.2020
    Transfer characteristics    : PQ
    Matrix coefficients         : BT.2020 non-constant
    Mastering display color pri : BT.2020
    Mastering display luminance : min: 0.0001 cd/m2, max: 1000 cd/m2
    Maximum Content Light Level : 893 cd/m2
    Maximum Frame-Average Light : 320 cd/m2

    Audio #1
    ID                          : 2
    Format                      : AC-3
    Format/Info                 : Audio Coding 3
    Commercial name             : Dolby Digital
    Codec ID                    : A_AC3
    Duration                    : 1 h 38 min
    Bit rate mode               : Constant
    Bit rate                    : 640 kb/s
    Channel(s)                  : 6 channels
    Channel layout              : L R C LFE Ls Rs
    Sampling rate               : 48.0 kHz
    Frame rate                  : 31.250 FPS (1536 SPF)
    Compression mode            : Lossy
    Delay relative to video     : 800 ms
    Stream size                 : 449 MiB (1%)
    Language                    : Spanish
    Service kind                : Complete Main
    Default                     : Yes
    Forced                      : No

    Audio #2
    ID                          : 3
    Format                      : AC-3
    Format/Info                 : Audio Coding 3
    Commercial name             : Dolby Digital
    Codec ID                    : A_AC3
    Duration                    : 1 h 38 min
    Bit rate mode               : Constant
    Bit rate                    : 640 kb/s
    Channel(s)                  : 6 channels
    Channel layout              : L R C LFE Ls Rs
    Sampling rate               : 48.0 kHz
    Frame rate                  : 31.250 FPS (1536 SPF)
    Compression mode            : Lossy
    Stream size                 : 449 MiB (1%)
    Language                    : English
    Service kind                : Complete Main
    Default                     : No
    Forced                      : No

    Audio #3
    ID                          : 4
    Format                      : DTS XLL
    Format/Info                 : Digital Theater Systems
    Commercial name             : DTS-HD Master Audio
    Codec ID                    : A_DTS
    Duration                    : 1 h 38 min
    Bit rate mode               : Variable
    Bit rate                    : 2 251 kb/s
    Channel(s)                  : 6 channels
    Channel layout              : C L R Ls Rs LFE
    Sampling rate               : 48.0 kHz
    Frame rate                  : 93.750 FPS (512 SPF)
    Bit depth                   : 16 bits
    Compression mode            : Lossless
    Stream size                 : 1.54 GiB (3%)
    Language                    : English
    Default                     : No
    Forced                      : No

    Text #1
    ID                          : 5
    Format                      : UTF-8
    Codec ID                    : S_TEXT/UTF8
    Codec ID/Info               : UTF-8 Plain Text
    Duration                    : 1 h 27 min
    Bit rate                    : 0 b/s
    Frame rate                  : 0.001 FPS
    Count of elements           : 7
    Stream size                 : 143 Bytes (0%)
    Title                       : Forzado
    Language                    : Spanish
    Default                     : Yes
    Forced                      : No

    Text #2
    ID                          : 6
    Format                      : UTF-8
    Codec ID                    : S_TEXT/UTF8
    Codec ID/Info               : UTF-8 Plain Text
    Duration                    : 1 h 31 min
    Bit rate                    : 53 b/s
    Frame rate                  : 0.216 FPS
    Count of elements           : 1189
    Stream size                 : 36.2 KiB (0%)
    Language                    : Spanish
    Default                     : No
    Forced                      : No

    Text #3
    ID                          : 7
    Format                      : PGS
    Muxing mode                 : zlib
    Codec ID                    : S_HDMV/PGS
    Codec ID/Info               : Picture based subtitle format used on BDs/HD-DVDs
    Duration                    : 1 h 27 min
    Bit rate                    : 373 b/s
    Frame rate                  : 0.003 FPS
    Count of elements           : 14
    Stream size                 : 239 KiB (0%)
    Title                       : Forzado
    Language                    : Spanish
    Default                     : No
    Forced                      : No

    Text #4
    ID                          : 8
    Format                      : PGS
    Muxing mode                 : zlib
    Codec ID                    : S_HDMV/PGS
    Codec ID/Info               : Picture based subtitle format used on BDs/HD-DVDs
    Duration                    : 1 h 31 min
    Bit rate                    : 30.4 kb/s
    Frame rate                  : 0.438 FPS
    Count of elements           : 2417
    Stream size                 : 20.0 MiB (0%)
    Language                    : Spanish
    Default                     : No
    Forced                      : No

    Menu
    00:00:00.000                : en:Start
    00:01:50.568                : en:A Rather Extraordinary Child
    00:03:08.688                : en:"Send Me on My Way"
    00:04:58.756                : en:In Search of a Book
    00:08:44.398                : en:Her First Practical Advice
    00:10:48.981                : en:Hair Tonic
    00:14:30.369                : en:Wormwood Motors
    00:17:17.870                : en:Cafe Le Ritz
    00:19:25.539                : en:The Million Dollor Sticky
    00:22:56.249                : en:Crunchem Hall
    00:26:02.769                : en:Amanda Thripp
    00:27:46.289                : en:Miss Honey
    00:34:04.333                : en:Miss Honey Pays a Visit
    00:37:10.311                : en:Bruce Bogtrotter
    00:45:44.408                : en:The Newt
    00:53:32.584                : en:Miss Honey's Story
    00:56:43.566                : en:Afraid of Black Cats
    00:58:11.654                : en:"Let's Go Get Your Doll."
    01:01:48.913                : en:The Chase
    01:09:36.338                : en:"Little Bitty Pretty One"
    01:13:03.837                : en:Lissy Doll
    01:15:19.223                : en:Terrifying Miss Trunchbull
    01:19:13.206                : en:No More Miss Nice Girl
    01:21:10.657                : en:"A Child Was in My House!"
    01:23:34.467                : en:Haunted Chalkboard
    01:25:30.250                : en:Trunchbull Goes for a Spin
    01:26:44.574                : en:Pelting the Trunchbull
    01:28:24.257                : en:Adopting Matilda
    01:32:33.256                : en:End Credits

     

  • Peso: 56.1 GiB

Sinopsis

Matilda Wormwood es una jovencita extremadamente curiosa e inteligente, todo lo contrario que sus chabacanos padres, que a menudo la ignoran. A medida que crece va descubriendo que posee poderes telequinéticos, hasta que un día un profesor le enseña que puede usar esos poderes para ayudar a sus amigos. Además las personas que hasta ese momento le han hecho la vida imposible sufrirán las consecuencias.

Ficha técnica

Video trailer de la película

Enlaces de descarga

Rip de Bluray

Descargar Matilda (1996) REMUX 4K HDR Latino – CMHDD




Aportes de DPeliculasHDmega la pass es:dpeliculashdmega.org Aportes de CinemaniaHD la pass es:cinemaniahdd.com Aportes recientes:cinemaniahdd.net
Guardado en : Comedia , Familia , Fantasía

Películas relacionadas

descargar Matilda (1996) REMUX 4K HDR Latino – CMHDD Full 1080p 1080p gratis, Matilda (1996) REMUX 4K HDR Latino – CMHDD Full 1080p mega 1 link, Matilda (1996) REMUX 4K HDR Latino – CMHDD Full 1080p pelicula completa, descargar Matilda (1996) REMUX 4K HDR Latino – CMHDD Full 1080p gratis en mega.

Matilda (1996) REMUX 4K HDR Latino – CMHDD pelicula full hd, Matilda (1996) REMUX 4K HDR Latino – CMHDD mega latino, Matilda (1996) REMUX 4K HDR Latino – CMHDD 4k latino, Matilda (1996) REMUX 4K HDR Latino – CMHDD pelicula completa, Matilda (1996) REMUX 4K HDR Latino – CMHDD descargar gratis, descargar Matilda (1996) REMUX 4K HDR Latino – CMHDD pelicula latino, Matilda (1996) REMUX 4K HDR Latino – CMHDD 1 link mega, Matilda (1996) REMUX 4K HDR Latino – CMHDD 1 link google drive, Matilda (1996) REMUX 4K HDR Latino – CMHDD hd 1080p latino.
Comentarios 0