×

¿Problemas para descargar con Mozilla, EDGE? Deshabilita la opción "Abrir vinculos en una pestaña nueva" tal como lo muestra ésta imagen.

Los tramposos (2003) REMUX 1080p Latino

229 vistas

Información de Los tramposos (2003) REMUX 1080p Latino

Datos de la película

  • Calidad: Full 1080p
  • Audio: Español Latino AC3 2.0 WEB-DL - Ingles DTS 5.1 BLURAY
  • Subtitulos: Español Latino PGS - Ingles PGS
  • Resolución: 1920x1080p
  • Formato: MKV
  • Codec: H.264
  • Encoder: CinefiloCool
  • Mediainfo: Clic para Mostrar Datos Ver
  • Los Tramposos (2003) REMUX 1080p Latino-CMHDD.mkv
    Format                      : Matroska
    Format version              : Version 4
    File size                   : 26.3 GiB
    Duration                    : 1 h 56 min
    Overall bit rate mode       : Variable
    Overall bit rate            : 32.4 Mb/s
    Movie name                  : Matchstick Men (2003) CinemaniaHDD.Net
    Encoded date                : UTC 2022-01-11 05:37:26
    Writing application         : mkvmerge v56.1.0 ('My Friend') 64-bit
    Writing library             : libebml v1.4.2 + libmatroska v1.6.4

    Video
    ID                          : 1
    Format                      : AVC
    Format/Info                 : Advanced Video Codec
    Format profile              : High@L4.1
    Format settings             : CABAC / 2 Ref Frames
    Format settings, CABAC      : Yes
    Format settings, Reference  : 2 frames
    Format settings, GOP        : M=1, N=10
    Codec ID                    : V_MPEG4/ISO/AVC
    Duration                    : 1 h 56 min
    Bit rate mode               : Variable
    Bit rate                    : 29.9 Mb/s
    Width                       : 1 920 pixels
    Height                      : 1 080 pixels
    Display aspect ratio        : 16:9
    Frame rate mode             : Constant
    Frame rate                  : 23.976 (24000/1001) FPS
    Color space                 : YUV
    Chroma subsampling          : 4:2:0
    Bit depth                   : 8 bits
    Scan type                   : Progressive
    Bits/(Pixel*Frame)          : 0.602
    Stream size                 : 24.3 GiB (92%)
    Title                       : REMUX HD1080p [CinemaniaHDD]
    Default                     : Yes
    Forced                      : Yes

    Audio #1
    ID                          : 2
    Format                      : AC-3
    Format/Info                 : Audio Coding 3
    Commercial name             : Dolby Digital
    Codec ID                    : A_AC3
    Duration                    : 1 h 56 min
    Bit rate mode               : Constant
    Bit rate                    : 256 kb/s
    Channel(s)                  : 2 channels
    Channel layout              : L R
    Sampling rate               : 48.0 kHz
    Frame rate                  : 31.250 FPS (1536 SPF)
    Compression mode            : Lossy
    Stream size                 : 213 MiB (1%)
    Title                       : Español Latino [CinemaniaHDD]
    Language                    : Spanish
    Service kind                : Complete Main
    Default                     : Yes
    Forced                      : Yes

    Audio #2
    ID                          : 3
    Format                      : DTS XLL
    Format/Info                 : Digital Theater Systems
    Commercial name             : DTS-HD Master Audio
    Codec ID                    : A_DTS
    Duration                    : 1 h 56 min
    Bit rate mode               : Variable
    Bit rate                    : 2 129 kb/s
    Channel(s)                  : 6 channels
    Channel layout              : C L R Ls Rs LFE
    Sampling rate               : 48.0 kHz
    Frame rate                  : 93.750 FPS (512 SPF)
    Bit depth                   : 16 bits
    Compression mode            : Lossless
    Stream size                 : 1.73 GiB (7%)
    Title                       : Ingles [CinemaniaHDD]
    Language                    : English
    Default                     : No
    Forced                      : No

    Text #1
    ID                          : 4
    Format                      : PGS
    Muxing mode                 : zlib
    Codec ID                    : S_HDMV/PGS
    Codec ID/Info               : Picture based subtitle format used on BDs/HD-DVDs
    Duration                    : 1 h 55 min
    Bit rate                    : 62.7 kb/s
    Count of elements           : 2871
    Stream size                 : 51.9 MiB (0%)
    Title                       : Español-PGS [CinemaniaHDD]
    Language                    : Spanish
    Default                     : No
    Forced                      : No

    Text #2
    ID                          : 5
    Format                      : PGS
    Muxing mode                 : zlib
    Codec ID                    : S_HDMV/PGS
    Codec ID/Info               : Picture based subtitle format used on BDs/HD-DVDs
    Duration                    : 1 h 55 min
    Bit rate                    : 73.6 kb/s
    Count of elements           : 3083
    Stream size                 : 60.9 MiB (0%)
    Title                       : Ingles-PGS [CinemaniaHDD]
    Language                    : English
    Default                     : No
    Forced                      : No

    Text #3
    ID                          : 6
    Format                      : UTF-8
    Codec ID                    : S_TEXT/UTF8
    Codec ID/Info               : UTF-8 Plain Text
    Duration                    : 1 h 55 min
    Bit rate                    : 0 b/s
    Count of elements           : 5
    Stream size                 : 89.0 Bytes (0%)
    Title                       : Forzados-SRT [CinemaniaHDD]
    Language                    : Spanish
    Default                     : Yes
    Forced                      : Yes

    Text #4
    ID                          : 7
    Format                      : UTF-8
    Codec ID                    : S_TEXT/UTF8
    Codec ID/Info               : UTF-8 Plain Text
    Duration                    : 1 h 55 min
    Bit rate                    : 53 b/s
    Count of elements           : 1381
    Stream size                 : 45.6 KiB (0%)
    Title                       : Español-SRT [CinemaniaHDD]
    Language                    : Spanish
    Default                     : No
    Forced                      : No

    Menu
    00:00:00.000                : Blue Water Credits
    00:02:04.666                : One Two Three...Work
    00:05:21.279                : Double Play
    00:09:46.168                : Down the Drain
    00:13:52.998                : Dr. Klein
    00:20:01.199                : A Daugter
    00:24:17.539                : Nice Meeting You, Dad
    00:30:22.612                : Getting His Act Together
    00:33:49.902                : Surprise Guest
    00:36:10.418                : Casing the Joint
    00:40:32.847                : Kid in the House
    00:45:39.111                : Smells Like Gum
    00:49:02.564                : Shame on You
    00:52:47.998                : Teach Me Something
    00:54:59.671                : Lottery Larceny
    00:59:43.371                : Working Them Together
    01:02:29.245                : Lonesome
    01:06:16.931                : A New Player
    01:10:13.250                : Switch
    01:16:07.437                : On the Record
    01:19:19.087                : In the Way
    01:22:05.962                : Pill Pushed
    01:27:06.804                : Changed Man
    01:30:59.537                : Bullet for an Intruder
    01:34:16.233                : Hospitalized
    01:38:14.013                : Roy's Number
    01:43:19.276                : Visiting Heather
    01:45:00.335                : Another Live One
    01:47:58.472                : I Know Your Name
    01:51:25.512                : Home; End Credits

  • Peso: 26.3 GiB

Sinopsis

Descargar Los tramposos (2003) REMUX 1080p Latino. Roy y Frank son dos estafadores de poca monta.La vida privada de Roy es más bien problemática: padece agorafobia, es un maniático compulsivo, un fumador empedernido y no tiene ningún tipo de relación personal; a veces, cuando sus manías empiezan a poner en peligro su rendimiento y su cordura, se ve obligado a visitar a un psicoanalista para seguir funcionando. Gracias a la terapia que le prescribe su médico, llega a saber que tiene una hija adolescente, cosa que sospechaba, pero que nunca se había atrevido a confirmar. Y lo que es más preocupante, Angela quiere conocer al padre al que nunca ha visto. Al principio, la aparición de Angela perturba la ordenada rutina de su neurótico padre. Sin embargo, a pesar de su peculiar manera de asumir la paternidad, Roy comienza a disfrutar de una relación que nunca había soñado tener.

Disponible Solo Para VIP!!! 

Ficha técnica

Video trailer de la película

Enlaces de descarga

Rip de Bluray

Descargar Los tramposos (2003) REMUX 1080p Latino


Aportes de DPeliculasHDmega la pass es:dpeliculashdmega.org Aportes de CinemaniaHD la pass es:cinemaniahdd.com
Guardado en : Comedia , Crimen , Drama , Remux , Suspenso

Películas relacionadas

descargar Los tramposos (2003) REMUX 1080p Latino Full 1080p 1080p gratis, Los tramposos (2003) REMUX 1080p Latino Full 1080p mega 1 link, Los tramposos (2003) REMUX 1080p Latino Full 1080p pelicula completa, descargar Los tramposos (2003) REMUX 1080p Latino Full 1080p gratis en mega.

Los tramposos (2003) REMUX 1080p Latino pelicula full hd, Los tramposos (2003) REMUX 1080p Latino mega latino, Los tramposos (2003) REMUX 1080p Latino 4k latino, Los tramposos (2003) REMUX 1080p Latino pelicula completa, Los tramposos (2003) REMUX 1080p Latino descargar gratis, descargar Los tramposos (2003) REMUX 1080p Latino pelicula latino, Los tramposos (2003) REMUX 1080p Latino 1 link mega, Los tramposos (2003) REMUX 1080p Latino 1 link google drive, Los tramposos (2003) REMUX 1080p Latino hd 1080p latino.
Comentarios 0