×

¿Problemas para descargar con Mozilla, EDGE? Deshabilita la opción "Abrir vinculos en una pestaña nueva" tal como lo muestra ésta imagen.

Los tramposos (2003) Full HD 1080p Latino

3.976 vistas

Información de Los tramposos (2003) Full HD 1080p Latino

Datos de la película

  • Calidad: Full 1080p
  • Audio: Español Latino AC3 2.0 WEB-DL - Ingles DTS 5.1 BLURAY
  • Subtitulos: Español Latino PGS - Ingles PGS
  • Resolución: 1920x1080p
  • Formato: MKV
  • Codec: H.264
  • Encoder: CinefiloCool
  • Mediainfo: Clic para Mostrar Datos Ver
  • Los Tramposos (2003) Full HD 1080p Latino-CMHDD.mkv
    Format                      : Matroska
    Format version              : Version 4
    File size                   : 6.24 GiB
    Duration                    : 1 h 56 min
    Overall bit rate            : 7 685 kb/s
    Movie name                  : Matchstick Men (2003) CinemaniaHDD.Net
    Encoded date                : UTC 2023-01-11 01:49:59
    Writing application         : mkvmerge v56.1.0 ('My Friend') 64-bit
    Writing library             : libebml v1.4.2 + libmatroska v1.6.4

    Video
    ID                          : 1
    Format                      : AVC
    Format/Info                 : Advanced Video Codec
    Format profile              : High@L4.1
    Format settings             : CABAC / 4 Ref Frames
    Format settings, CABAC      : Yes
    Format settings, Reference  : 4 frames
    Codec ID                    : V_MPEG4/ISO/AVC
    Duration                    : 1 h 56 min
    Bit rate                    : 5 856 kb/s
    Width                       : 1 920 pixels
    Height                      : 1 080 pixels
    Display aspect ratio        : 16:9
    Frame rate mode             : Constant
    Frame rate                  : 23.976 (24000/1001) FPS
    Color space                 : YUV
    Chroma subsampling          : 4:2:0
    Bit depth                   : 8 bits
    Scan type                   : Progressive
    Bits/(Pixel*Frame)          : 0.118
    Stream size                 : 4.75 GiB (76%)
    Title                       : Full HD1080p [CinemaniaHDD]
    Writing library             : x264 core 163 r3059 b684ebe0
    Encoding settings           : cabac=1 / ref=4 / deblock=1:0:0 / analyse=0x3:0x133 / me=tesa / subme=11 / psy=1 / psy_rd=1.00:0.00 / mixed_ref=1 / me_range=24 / chroma_me=1 / trellis=2 / 8x8dct=1 / cqm=0 / deadzone=21,11 / fast_pskip=0 / chroma_qp_offset=-2 / threads=24 / lookahead_threads=6 / sliced_threads=0 / nr=0 / decimate=1 / interlaced=0 / bluray_compat=0 / constrained_intra=0 / bframes=16 / b_pyramid=2 / b_adapt=2 / b_bias=0 / direct=3 / weightb=1 / open_gop=0 / weightp=2 / keyint=240 / keyint_min=24 / scenecut=40 / intra_refresh=0 / rc_lookahead=60 / rc=crf / mbtree=1 / crf=20.0 / qcomp=0.60 / qpmin=0 / qpmax=69 / qpstep=4 / vbv_maxrate=62500 / vbv_bufsize=78125 / crf_max=0.0 / nal_hrd=none / filler=0 / ip_ratio=1.40 / aq=1:1.00
    Default                     : Yes
    Forced                      : Yes
    Color range                 : Limited
    Color primaries             : BT.709
    Transfer characteristics    : BT.709
    Matrix coefficients         : BT.709

    Audio #1
    ID                          : 2
    Format                      : AC-3
    Format/Info                 : Audio Coding 3
    Commercial name             : Dolby Digital
    Codec ID                    : A_AC3
    Duration                    : 1 h 56 min
    Bit rate mode               : Constant
    Bit rate                    : 256 kb/s
    Channel(s)                  : 2 channels
    Channel layout              : L R
    Sampling rate               : 48.0 kHz
    Frame rate                  : 31.250 FPS (1536 SPF)
    Compression mode            : Lossy
    Stream size                 : 213 MiB (3%)
    Title                       : Español Latino [CinemaniaHDD]
    Language                    : Spanish
    Service kind                : Complete Main
    Default                     : Yes
    Forced                      : Yes

    Audio #2
    ID                          : 3
    Format                      : DTS
    Format/Info                 : Digital Theater Systems
    Codec ID                    : A_DTS
    Duration                    : 1 h 56 min
    Bit rate mode               : Constant
    Bit rate                    : 1 509 kb/s
    Channel(s)                  : 6 channels
    Channel layout              : C L R Ls Rs LFE
    Sampling rate               : 48.0 kHz
    Frame rate                  : 93.750 FPS (512 SPF)
    Bit depth                   : 24 bits
    Compression mode            : Lossy
    Stream size                 : 1.22 GiB (20%)
    Title                       : Ingles [CinemaniaHDD]
    Language                    : English
    Default                     : No
    Forced                      : No

    Text #1
    ID                          : 4
    Format                      : PGS
    Muxing mode                 : zlib
    Codec ID                    : S_HDMV/PGS
    Codec ID/Info               : Picture based subtitle format used on BDs/HD-DVDs
    Duration                    : 1 h 55 min
    Bit rate                    : 62.7 kb/s
    Count of elements           : 2871
    Stream size                 : 51.9 MiB (1%)
    Title                       : Español-PGS [CinemaniaHDD]
    Language                    : Spanish
    Default                     : No
    Forced                      : No

    Text #2
    ID                          : 5
    Format                      : PGS
    Muxing mode                 : zlib
    Codec ID                    : S_HDMV/PGS
    Codec ID/Info               : Picture based subtitle format used on BDs/HD-DVDs
    Duration                    : 1 h 55 min
    Bit rate                    : 73.6 kb/s
    Count of elements           : 3083
    Stream size                 : 60.9 MiB (1%)
    Title                       : Ingles-PGS [CinemaniaHDD]
    Language                    : English
    Default                     : No
    Forced                      : No

    Text #3
    ID                          : 6
    Format                      : UTF-8
    Codec ID                    : S_TEXT/UTF8
    Codec ID/Info               : UTF-8 Plain Text
    Duration                    : 1 h 55 min
    Bit rate                    : 0 b/s
    Count of elements           : 5
    Stream size                 : 89.0 Bytes (0%)
    Title                       : Forzados-SRT [CinemaniaHDD]
    Language                    : Spanish
    Default                     : Yes
    Forced                      : Yes

    Text #4
    ID                          : 7
    Format                      : UTF-8
    Codec ID                    : S_TEXT/UTF8
    Codec ID/Info               : UTF-8 Plain Text
    Duration                    : 1 h 55 min
    Bit rate                    : 53 b/s
    Count of elements           : 1381
    Stream size                 : 45.6 KiB (0%)
    Title                       : Español-SRT [CinemaniaHDD]
    Language                    : Spanish
    Default                     : No
    Forced                      : No

    Menu
    00:00:00.000                : Blue Water Credits
    00:02:04.666                : One Two Three...Work
    00:05:21.279                : Double Play
    00:09:46.168                : Down the Drain
    00:13:52.998                : Dr. Klein
    00:20:01.199                : A Daugter
    00:24:17.539                : Nice Meeting You, Dad
    00:30:22.612                : Getting His Act Together
    00:33:49.902                : Surprise Guest
    00:36:10.418                : Casing the Joint
    00:40:32.847                : Kid in the House
    00:45:39.111                : Smells Like Gum
    00:49:02.564                : Shame on You
    00:52:47.998                : Teach Me Something
    00:54:59.671                : Lottery Larceny
    00:59:43.371                : Working Them Together
    01:02:29.245                : Lonesome
    01:06:16.931                : A New Player
    01:10:13.250                : Switch
    01:16:07.437                : On the Record
    01:19:19.087                : In the Way
    01:22:05.962                : Pill Pushed
    01:27:06.804                : Changed Man
    01:30:59.537                : Bullet for an Intruder
    01:34:16.233                : Hospitalized
    01:38:14.013                : Roy's Number
    01:43:19.276                : Visiting Heather
    01:45:00.335                : Another Live One
    01:47:58.472                : I Know Your Name
    01:51:25.512                : Home; End Credits

  • Peso: 6.24 GB

Sinopsis

Descargar Los tramposos (2003) Full HD 1080p Latino. Roy (Nicolas Cage) y Frank (Sam Rockwell) son dos estafadores de poca monta.La vida privada de Roy es más bien problemática: padece agorafobia, es un maniático compulsivo, un fumador empedernido y no tiene ningún tipo de relación personal; a veces, cuando sus manías empiezan a poner en peligro su rendimiento y su cordura, se ve obligado a visitar a un psicoanalista (Bruce Altman) para seguir funcionando. Gracias a la terapia que le prescribe su médico, llega a saber que tiene una hija adolescente, cosa que sospechaba, pero que nunca se había atrevido a confirmar. Y lo que es más preocupante, Angela (Alison Lohman) quiere conocer al padre al que nunca ha visto. Al principio, la aparición de Angela perturba la ordenada rutina de su neurótico padre. Sin embargo, a pesar de su peculiar manera de asumir la paternidad, Roy comienza a disfrutar de una relación que nunca había soñado tener.

RESUBIDA NUEVO RIP VERSION PLACEBO!!!

Ficha técnica

Video trailer de la película

Enlaces de descarga

Rip de Bluray

Descargar Los tramposos (2003) Full HD 1080p Latino




Aportes de DPeliculasHDmega la pass es:dpeliculashdmega.org Aportes de CinemaniaHD la pass es:cinemaniahdd.com

Películas relacionadas

  • Transfusion (2023) HD 1080p Latino

    Transfusion (2023) HD 1080p Latino

    2023
    Transfusion (2023) HD 1080p Latino

    1h 45m 2023

    Descargar Transfusion (2023) HD 1080p Latino. Un antiguo agente de las Fuerzas Especiales se ve empujado...

    Director: Matt Nable

    Género: Crimen

    Actores: Trystan Go

  • Transfusion (2023) PLACEBO Full HD 1080p Latino

    Transfusion (2023) PLACEBO Full HD 1080p Latino

    2023
    Transfusion (2023) PLACEBO Full HD 1080p Latino

    1h 45m 2023

    Descargar Transfusion (2023) PLACEBO Full HD 1080p Latino. Un antiguo agente de las Fuerzas Especiales...

    Director: Matt Nable

    Género: Crimen

    Actores: Trystan Go

  • Transfusion (2023) REMUX 1080p Latino

    Transfusion (2023) REMUX 1080p Latino

    2023
    Transfusion (2023) REMUX 1080p Latino

    1h 45m 2023

    Descargar Transfusion (2023) REMUX 1080p Latino. Un antiguo agente de las Fuerzas Especiales se ve empujado...

    Director: Matt Nable

    Género: Crimen

    Actores: Trystan Go

  • Quantum Leap (2022) Temporada 1 WEB-DL 1080p Latino

    Quantum Leap (2022) Temporada 1 WEB-DL 1080p Latino

    2022
    Quantum Leap (2022) Temporada 1 WEB-DL 1080p Latino

    0h 43m 2022

    Han pasado 27 años desde que el Dr. Sam Beckett pisó el acelerador Quantum Leap y desapareció. Ahora...

    Director: Donald P. Bellisario

    Género: Drama

    Actores: Raymond Lee

  • Gladiador (2000) EXTENDED CUT 1080p Latino

    Gladiador (2000) EXTENDED CUT 1080p Latino

    2000
    Gladiador (2000) EXTENDED CUT 1080p Latino

    2h 35m 2000

    Gladiador (2000) EXTENDED CUT 1080p Latino. Máximo, General de las Legiones Romanas, es querido por...

    Director: Ridley Scott

    Género: Acción

    Actores: Tony Curran

descargar Los tramposos (2003) Full HD 1080p Latino Full 1080p 1080p gratis, Los tramposos (2003) Full HD 1080p Latino Full 1080p mega 1 link, Los tramposos (2003) Full HD 1080p Latino Full 1080p pelicula completa, descargar Los tramposos (2003) Full HD 1080p Latino Full 1080p gratis en mega.

Los tramposos (2003) Full HD 1080p Latino pelicula full hd, Los tramposos (2003) Full HD 1080p Latino mega latino, Los tramposos (2003) Full HD 1080p Latino 4k latino, Los tramposos (2003) Full HD 1080p Latino pelicula completa, Los tramposos (2003) Full HD 1080p Latino descargar gratis, descargar Los tramposos (2003) Full HD 1080p Latino pelicula latino, Los tramposos (2003) Full HD 1080p Latino 1 link mega, Los tramposos (2003) Full HD 1080p Latino 1 link google drive, Los tramposos (2003) Full HD 1080p Latino hd 1080p latino.
Comentarios 6
  • SgtAdder - 19 octubre, 2021

    Muy agradecido!

  • 4K-HDR - 08 agosto, 2020

    ¿Podrían resubirla por favor?

    • Dracarys - 08 agosto, 2020

      Mega esta online

  • Valemovie79 - 20 abril, 2020

    Los links de google drive están caídos, espero que lo puedan solucionar, gracias.

    • Dracarys - 08 agosto, 2020

      Mega esta online

  • Mr Friend - 30 septiembre, 2017

    Estimados amigos de CINEMANIAHD: Simplemente, quiero felicitarlos por compartir tantas buenas pelis y, además, por haber solucionado el problema con los enlaces de descarga que previamente no dejaban pasar a partir de la publicidad. Ahora es todo más sencillo. MUCHAS GRACIAS!! SIEMPRE LOS RECOMIENDO!