×

¿Problemas para descargar con Mozilla, EDGE? Deshabilita la opción "Abrir vinculos en una pestaña nueva" tal como lo muestra ésta imagen.

MatchMaker Mysteries: A Killer Engagement (2019) WEB-DL 1080p Latino

167 vistas

Información de MatchMaker Mysteries: A Killer Engagement (2019) WEB-DL 1080p Latino

Datos de la película

  • Calidad: 1080p
  • Audio: Español Latino AC3 2.0 WEB-DL - Ingles AC3 2.0 WEB-DL
  • Subtitulos: Español Latino SRT
  • Resolución: 1920x1080
  • Formato: MKV
  • Codec: H.264
  • Encoder: cinemaniahdd
  • Mediainfo: Clic para Mostrar Datos Ver
  • Matchmaker Mysteries A Killer Engagement (2019) WEB-DL 1080p Latino [CNMNHDD].mkv
    Format                      : Matroska
    Format version              : Version 4
    File size                   : 5.42 GiB
    Duration                    : 1 h 26 min
    Overall bit rate mode       : Variable
    Overall bit rate            : 9 016 kb/s
    Movie name                  : Matchmaker Mysteries A Killer Engagement (2019) - CinemaniaHDD.Net
    Encoded date                : UTC 2022-01-30 18:42:17
    Writing application         : mkvmerge v58.0.0 ('Supper's Ready') 32-bit
    Writing library             : libebml v1.4.2 + libmatroska v1.6.4

    Video
    ID                          : 1
    Format                      : AVC
    Format/Info                 : Advanced Video Codec
    Format profile              : High@L4
    Format settings             : CABAC / 4 Ref Frames
    Format settings, CABAC      : Yes
    Format settings, Reference  : 4 frames
    Codec ID                    : V_MPEG4/ISO/AVC
    Duration                    : 1 h 26 min
    Bit rate mode               : Variable
    Bit rate                    : 8 250 kb/s
    Maximum bit rate            : 12.4 Mb/s
    Width                       : 1 920 pixels
    Height                      : 1 080 pixels
    Display aspect ratio        : 16:9
    Frame rate mode             : Constant
    Frame rate                  : 29.970 (30000/1001) FPS
    Color space                 : YUV
    Chroma subsampling          : 4:2:0
    Bit depth                   : 8 bits
    Scan type                   : Progressive
    Bits/(Pixel*Frame)          : 0.133
    Stream size                 : 4.95 GiB (91%)
    Title                       : CinemaniaHDD
    Writing library             : x264 core 157 r2965 861cec4
    Encoding settings           : cabac=1 / ref=4 / deblock=1:0:0 / analyse=0x3:0x113 / me=hex / subme=7 / psy=1 / psy_rd=1.00:0.00 / mixed_ref=1 / me_range=16 / chroma_me=1 / trellis=1 / 8x8dct=1 / cqm=0 / deadzone=21,11 / fast_pskip=1 / chroma_qp_offset=-2 / threads=34 / lookahead_threads=5 / sliced_threads=0 / nr=0 / decimate=1 / interlaced=0 / bluray_compat=0 / constrained_intra=0 / bframes=3 / b_pyramid=2 / b_adapt=1 / b_bias=0 / direct=1 / weightb=1 / open_gop=0 / weightp=2 / keyint=120 / keyint_min=120 / scenecut=40 / intra_refresh=0 / rc_lookahead=40 / rc=2pass / mbtree=1 / bitrate=8250 / ratetol=1.0 / qcomp=0.60 / qpmin=0 / qpmax=69 / qpstep=4 / cplxblur=20.0 / qblur=0.5 / vbv_maxrate=12375 / vbv_bufsize=6187 / nal_hrd=vbr / filler=0 / ip_ratio=1.40 / aq=1:1.00
    Default                     : Yes
    Forced                      : No
    Color range                 : Limited
    Color primaries             : BT.709
    Transfer characteristics    : BT.709
    Matrix coefficients         : BT.709

    Audio #1
    ID                          : 2
    Format                      : AC-3
    Format/Info                 : Audio Coding 3
    Commercial name             : Dolby Digital
    Codec ID                    : A_AC3
    Duration                    : 1 h 26 min
    Bit rate mode               : Constant
    Bit rate                    : 384 kb/s
    Channel(s)                  : 2 channels
    Channel layout              : L R
    Sampling rate               : 48.0 kHz
    Frame rate                  : 31.250 FPS (1536 SPF)
    Compression mode            : Lossy
    Stream size                 : 236 MiB (4%)
    Title                       : Español latino [CinemaniaHDD]
    Language                    : Spanish
    Service kind                : Complete Main
    Default                     : Yes
    Forced                      : No

    Audio #2
    ID                          : 3
    Format                      : AC-3
    Format/Info                 : Audio Coding 3
    Commercial name             : Dolby Digital
    Codec ID                    : A_AC3
    Duration                    : 1 h 26 min
    Bit rate mode               : Constant
    Bit rate                    : 384 kb/s
    Channel(s)                  : 2 channels
    Channel layout              : L R
    Sampling rate               : 48.0 kHz
    Frame rate                  : 31.250 FPS (1536 SPF)
    Compression mode            : Lossy
    Stream size                 : 236 MiB (4%)
    Title                       : Inglés [CinemaniaHDD]
    Language                    : English
    Service kind                : Complete Main
    Default                     : No
    Forced                      : No

    Text
    ID                          : 4
    Format                      : UTF-8
    Codec ID                    : S_TEXT/UTF8
    Codec ID/Info               : UTF-8 Plain Text
    Duration                    : 1 h 24 min
    Bit rate                    : 73 b/s
    Count of elements           : 1464
    Stream size                 : 45.3 KiB (0%)
    Title                       : Español latino [CinemaniaHDD]
    Language                    : Spanish
    Default                     : No
    Forced                      : No

     

  • Peso: 5.42 GiB

Sinopsis

Cuando una mujer es asesinada, la exitosa casamentera Angie Dove se involucra en el caso para demostrar la inocencia de uno de sus clientes.

Ficha técnica

Video trailer de la película

Enlaces de descarga

Rip de Bluray

Descargar MatchMaker Mysteries: A Killer Engagement (2019) WEB-DL 1080p Latino




Aportes de DPeliculasHDmega la pass es:dpeliculashdmega.org Aportes de CinemaniaHD la pass es:cinemaniahdd.com
Guardado en : Misterio , Película de TV

Películas relacionadas

  • Infiniti (2022) Primera Temporada WEB-DL 1080p Latino

    Infiniti (2022) Primera Temporada WEB-DL 1080p Latino

    2022
    Infiniti (2022) Primera Temporada WEB-DL 1080p Latino

    0h 52m 2022

    La ISS, la Estación Espacial Internacional se ha quedado en silencio. La tripulación está en peligro....

    Director: Stéphane Pannetier

    Género: Drama

    Actores: Vlad Ivanov

  • El Perfumista (2022) NF WEB-DL 1080p Latino

    El Perfumista (2022) NF WEB-DL 1080p Latino

    2022
    El Perfumista (2022) NF WEB-DL 1080p Latino

    1h 36m 2022

    Descargar El Perfumista (2022) NF WEB-DL 1080p Latino. Para recuperar su sentido del olfato y el afecto...

    Director: Nils Willbrandt

    Género: Crimen

    Actores: Sólveig Arnarsdóttir

  • Venganza (2022) HD 1080p Latino

    Venganza (2022) HD 1080p Latino

    2022
    Venganza (2022) HD 1080p Latino

    1h 47m 2022

    Descargar Venganza (2022) HD 1080p Latino. Ben Manalowitz, periodista y presentador de podcasts, viaja...

    Director: Tara Hunter

    Género: Comedia

    Actores: Zach Villa

  • Venganza (2022) PLACEBO Full HD 1080p Latino

    Venganza (2022) PLACEBO Full HD 1080p Latino

    2022
    Venganza (2022) PLACEBO Full HD 1080p Latino

    1h 47m 2022

    Descargar Venganza (2022) PLACEBO Full HD 1080p Latino. Ben Manalowitz, periodista y presentador de podcasts,...

    Director: Tara Hunter

    Género: Comedia

    Actores: Zach Villa

  • Venganza (2022) REMUX 1080p Latino

    Venganza (2022) REMUX 1080p Latino

    2022
    Venganza (2022) REMUX 1080p Latino

    1h 47m 2022

    Descargar Venganza (2022) REMUX 1080p Latino. Ben Manalowitz, periodista y presentador de podcasts, viaja...

    Director: Tara Hunter

    Género: Comedia

    Actores: Zach Villa

descargar MatchMaker Mysteries: A Killer Engagement (2019) WEB-DL 1080p Latino 1080p 1080p gratis, MatchMaker Mysteries: A Killer Engagement (2019) WEB-DL 1080p Latino 1080p mega 1 link, MatchMaker Mysteries: A Killer Engagement (2019) WEB-DL 1080p Latino 1080p pelicula completa, descargar MatchMaker Mysteries: A Killer Engagement (2019) WEB-DL 1080p Latino 1080p gratis en mega.

MatchMaker Mysteries: A Killer Engagement (2019) WEB-DL 1080p Latino pelicula full hd, MatchMaker Mysteries: A Killer Engagement (2019) WEB-DL 1080p Latino mega latino, MatchMaker Mysteries: A Killer Engagement (2019) WEB-DL 1080p Latino 4k latino, MatchMaker Mysteries: A Killer Engagement (2019) WEB-DL 1080p Latino pelicula completa, MatchMaker Mysteries: A Killer Engagement (2019) WEB-DL 1080p Latino descargar gratis, descargar MatchMaker Mysteries: A Killer Engagement (2019) WEB-DL 1080p Latino pelicula latino, MatchMaker Mysteries: A Killer Engagement (2019) WEB-DL 1080p Latino 1 link mega, MatchMaker Mysteries: A Killer Engagement (2019) WEB-DL 1080p Latino 1 link google drive, MatchMaker Mysteries: A Killer Engagement (2019) WEB-DL 1080p Latino hd 1080p latino.
Comentarios 0